Ссылка на приватное зеркало нашего сайта всего за 1$. Внимание количество ограничено!!!

2 сезон

iTunes

1 сезон

1

2 сезон

2 сезон

iTunes

1 сезон

RePack

30

Ultimate

ВАЖНО

ИГРА 18+

pack

RePack

MK11
pack

Забери бонус

RePack

jed

!!Акция!!

Alien_Rage

RePack

fifa19

RePack

Assassins Creed: Odyssey

RePack

NEED FOR SPEED™ PAYBACK

4 сезон

9 сезон

Бесстыжие 9 сезон

Все сериалы

все сериалы на PB.wtf

RePack

FAR CRY 5
  

Visions Of Atlantis - The Deep & The Dark (Japanese Edition) - 2018/ FLAC/ image +.cue/ lossless/ Symphonic, Gothic-Metal pb.wtf

Visions Of Atlantis - The Deep & The Dark через торрент pb.wtf

Размер: 380 MB | Добавлен: 2 года 2 мес. назад | Торрент скачан:29 раз
Скачать  

05-09-2018 14:28 Visions Of Atlantis - The Deep & The Dark Скачать торрент  


Visions Of Atlantis - The Deep & The Dark (Japanese Edition)


Год издания: 2018
Страна: Austria
Жанр: Symphonic, Gothic-Metal
Продолжительность: 00:45:19
Лейбл издания: Napalm Records / Rubicon
Страна-выпуска диска: Japan
Номер по каталогу: RBNCD-1250
Формат: FLAC
Битрейт аудио: Lossless
Тип рипа: image +.cue
Наличие сканов в содержимом раздачи: да


01. The Deep & The Dark (4:07)
02. Return To Lemuria (4:09)
03. Ritual Night (3:59)
04. The Silent Mutiny (3:45)
05. Book Of Nature (5:21)
06. The Last Home (4:14)
07. The Grand Illusion (3:42)
08. Dead Reckoning (3:53)
09. Words Of War (3:39)
10. Prayer To The Lost (4:15)
11. The Last Home (Acoustic Version) (Bonus Track) (4:14)

Код:

Exact Audio Copy V1.3 from 2. September 2016

EAC extraction logfile from 12. April 2018, 0:46

Visions Of Atlantis / The Deep & The Dark (Japan)

Used drive  : ATAPI   iHAS122   W   Adapter: 2  ID: 0

Read mode               : Secure
Utilize accurate stream : Yes
Defeat audio cache      : Yes
Make use of C2 pointers : No

Read offset correction                      : 48
Overread into Lead-In and Lead-Out          : No
Fill up missing offset samples with silence : Yes
Delete leading and trailing silent blocks   : No
Null samples used in CRC calculations       : Yes
Used interface                              : Installed external ASPI interface

Used output format              : User Defined Encoder
Selected bitrate                : 1024 kBit/s
Quality                         : High
Add ID3 tag                     : No
Command line compressor         : C:\Program Files\FLAC\flac.exe
Additional command line options : -V -8 -T "Date=%year%" -T "Genre=%genre%" %source%

TOC of the extracted CD

     Track |   Start  |  Length  | Start sector | End sector
    ---------------------------------------------------------
        1  |  0:00.00 |  4:07.30 |         0    |    18554
        2  |  4:07.30 |  4:09.35 |     18555    |    37264
        3  |  8:16.65 |  3:58.51 |     37265    |    55165
        4  | 12:15.41 |  3:45.31 |     55166    |    72071
        5  | 16:00.72 |  5:21.01 |     72072    |    96147
        6  | 21:21.73 |  4:14.05 |     96148    |   115202
        7  | 25:36.03 |  3:42.00 |    115203    |   131852
        8  | 29:18.03 |  3:52.71 |    131853    |   149323
        9  | 33:10.74 |  3:39.02 |    149324    |   165750
       10  | 36:50.01 |  4:14.66 |    165751    |   184866
       11  | 41:04.67 |  4:14.25 |    184867    |   203941

Range status and errors

Selected range

     Filename D:\Visions Of Atlantis - The Deep & The Dark (Japan).wav

     Peak level 91.7 %
     Extraction speed 3.7 X
     Range quality 100.0 %
     Test CRC 225ADBD4
     Copy CRC 225ADBD4
     Copy OK

No errors occurred

AccurateRip summary

Track  1  not present in database
Track  2  not present in database
Track  3  not present in database
Track  4  not present in database
Track  5  not present in database
Track  6  not present in database
Track  7  not present in database
Track  8  not present in database
Track  9  not present in database
Track 10  not present in database
Track 11  not present in database

None of the tracks are present in the AccurateRip database

End of status report

Код:

REM GENRE "Symphonic Metal"
REM DATE 2018
REM DISCID A30A9F0B
REM COMMENT "ExactAudioCopy v1.3"
PERFORMER "Visions Of Atlantis"
TITLE "The Deep & The Dark (Japan)"
FILE "Visions Of Atlantis - The Deep & The Dark (Japan).flac" WAVE
  TRACK 01 AUDIO
    TITLE "The Deep & The Dark"
    PERFORMER "Visions Of Atlantis"
    INDEX 01 00:00:00
  TRACK 02 AUDIO
    TITLE "Return To Lemuria"
    PERFORMER "Visions Of Atlantis"
    INDEX 01 04:07:30
  TRACK 03 AUDIO
    TITLE "Ritual Night"
    PERFORMER "Visions Of Atlantis"
    INDEX 01 08:16:65
  TRACK 04 AUDIO
    TITLE "The Silent Mutiny"
    PERFORMER "Visions Of Atlantis"
    INDEX 01 12:15:41
  TRACK 05 AUDIO
    TITLE "Book Of Nature"
    PERFORMER "Visions Of Atlantis"
    INDEX 01 16:00:72
  TRACK 06 AUDIO
    TITLE "The Last Home"
    PERFORMER "Visions Of Atlantis"
    INDEX 01 21:21:73
  TRACK 07 AUDIO
    TITLE "The Grand Illusion"
    PERFORMER "Visions Of Atlantis"
    INDEX 01 25:36:03
  TRACK 08 AUDIO
    TITLE "Dead Reckoning"
    PERFORMER "Visions Of Atlantis"
    INDEX 01 29:18:03
  TRACK 09 AUDIO
    TITLE "Words Of War"
    PERFORMER "Visions Of Atlantis"
    INDEX 01 33:10:74
  TRACK 10 AUDIO
    TITLE "Prayer To The Lost"
    PERFORMER "Visions Of Atlantis"
    INDEX 01 36:50:01
  TRACK 11 AUDIO
    TITLE "The Last Home (Acoustic Version) (Bonus Track)"
    PERFORMER "Visions Of Atlantis"
    INDEX 01 41:04:67




pb.wtf



Скачать Visions Of Atlantis - The Deep & The Dark через торрент http://i103.fastpic.ru/big/2018/0904/1f/b80a053a6b3f79e468bfdb61071ddd1f.png Скачать фильм Visions Of Atlantis - The Deep & The Dark через торрент бесплантно в хорошем качестве Трэклист The Deep & The Dark (4:07) Return To Lemuria (4:09) Ritual Night (3:59) The Silent Mutiny (3:45) Book ... 10 10 1
Торрент: Зарегистрирован [2018-09-05 14:28] · скачан: 29 раз
Статус: √ проверено
Размер: 380 MB
Как cкачать? Как скачать Visions Of Atlantis - The Deep & The Dark через торрент | qTorrent

28-11-2019 20:33  

Отключить всю рекламу на сайте

    Дорогой пользователь! Огромная просьба, поблагодарите релизера, оцените раздачу и оставьте свои комментарий, если Вы скачали Visions Of Atlantis - The Deep & The Dark через торрент бесплатно! Внесите свою лепту в развитие PiratBit!
    Комментировать посты могут только пользователи прошедшие не сложную регистрацию
    Показать сообщения:    

    Visions Of Atlantis - The Deep & The Dark через торрент
    Скачать бесплатно Visions Of Atlantis - The Deep & The Dark
    Visions Of Atlantis - The Deep & The Dark скачать торрент
    Visions Of Atlantis - The Deep & The Dark смотреть онлайн
    Cкачать фильм Visions Of Atlantis - The Deep & The Dark бесплатно
    Visions Of Atlantis - The Deep & The Dark скачать торрент в хорошем качестве
    Visions Of Atlantis - The Deep & The Dark смотреть онлайн бесплатно в хорошем качестве


    Вы не можете начинать темы
    Вы не можете отвечать на сообщения
    Вы не можете редактировать свои сообщения
    Вы не можете удалять свои сообщения
    Вы не можете голосовать в опросах
    Вы не можете прикреплять файлы к сообщениям
    Вы можете скачивать файлы