2 сезон

iTunes

MVO

1

2 сезон

iTunes

iTunes

1 сезон

RePack

30

Ultimate

ВАЖНО

ИГРА 18+

pack

RePack

MK11
pack

Легкие деньги

RePack

jed

RePack

fifa19

RePack

RDR2

RePack

NEED FOR SPEED™ PAYBACK

4 сезон

9 сезон

Бесстыжие 9 сезон

Все сериалы

все сериалы на PB.wtf

RePack

FAR CRY 5

Anonymous, доброй ночи, мы не успеваем собрать деньги на оплату серверов за декабрь и январь, помогите нам пожалуйста в это трудное время. В качестве благодарности мы отключим Вам всю рекламу на сайте (укажите свой ник в строку Ваше имя)!

×
  
Magnet ссылка

Неповиновение / Disobedience (Себастьян Лелио) [2018, Драма, мелодрама, BDRip-AVC] 2xMVO [HDrezka Studio, Лицензия BD CEE] pb.wtf

Неповиновение через торрент pb.wtf

Размер: 1.61 GB | Добавлен: 2 года 4 мес. назад | Торрент скачан:77 раз
Скачать  

06-09-2018 00:42 Неповиновение Скачать торрент  

Неповиновение / Disobedience
Год выпуска: 2018
Страна: Ирландия, Великобритания, США
Жанр: Драма, мелодрама
Продолжительность: 01:54:39
Перевод:

Профессиональный (многоголосый, закадровый) | Лицензия BD CEE
Профессиональный (многоголосый) | HDRezka Studio

Субтитры: Русские (полные), Английские (полные, SDH)

Режиссер: Себастьян Лелио

rating

В ролях:

Энтон Лессер, Алессандро Нивола, Аллан Кордунер, Николас Вудесон, Дэвид Флишман, Стив Ферст, Рэйчел Вайс, Тревор Аллан Дейвис, Софиа Браун,Энтони Даудинг

Описание:

Женщина возвращается в свой ортодоксальный еврейский дом после смерти раввина, своего отца. Общественное возмущение вызывает интерес, возникший у нее к подруге детства.

Качество: BDRip-AVC
Формат: MKV

Видео: 1024x428 (2.40:1), 23,976 fps, x264 ~915 kbps avg, 0.087 bit/pixel
Аудио#1: 48 kHz, AC3 Dolby Digital, 3/2 (L,C,R,l,r) + LFE ch, ~448.00 kbps avg | RUS (Лицензия)
Аудио#2: 48 kHz, AC3 Dolby Digital, 2 (L,R) ch, ~192.00 kbps avg | RUS (HDRezka)
Аудио#3: 48 kHz, AC3 Dolby Digital, 3/2 (L,C,R,l,r) + LFE ch, ~448.00 kbps avg | ENG
скриншот  скриншот  скриншот  скриншот  

Общее
Уникальный идентификатор : 175753519637074916966782348991688209996 (0x8438E5898C023540EA81D6AD15CDF64C)
Полное имя : F:OlLanDGroupDisobedience.2017.BDRip(AVC).OlLanDGroup.mkv
Формат : Matroska
Версия формата : Version 4 / Version 2
Размер файла : 1,61 Гбайт
Продолжительность : 1 ч. 54 м.
Общий поток : 2005 Кбит/сек
Название фильма : Disobedience.2017 #TorpedoUK#
Дата кодирования : UTC 2018-09-06 00:27:00
Программа кодирования : mkvmerge v25.0.0 ('Prog Noir') 64-bit
Библиотека кодирования : libebml v1.3.6 + libmatroska v1.4.9

Видео
Идентификатор : 1
Формат : AVC
Формат/Информация : Advanced Video Codec
Профиль формата : High@L4.1
Параметр CABAC формата : Да
Параметр ReFrames формата : 10 кадров
Идентификатор кодека : V_MPEG4/ISO/AVC
Продолжительность : 1 ч. 54 м.
Битрейт : 915 Кбит/сек
Ширина : 1024 пикселя
Высота : 428 пикселей
Соотношение сторон : 2,40:1
Режим частоты кадров : Постоянный
Частота кадров : 23,976 (24000/1001) кадра/сек
Цветовое пространство : YUV
Субдискретизация насыщенности : 4:2:0
Битовая глубина : 8 бит
Тип развёртки : Прогрессивная
Бит/(Пиксели*Кадры) : 0.087
Размер потока : 750 Мбайт (46%)
Библиотека кодирования : x264 core 146 r2538 121396c
Настройки программы : cabac=1 / ref=10 / deblock=1:-3:-3 / analyse=0x3:0x113 / me=umh / subme=11 / psy=1 / psy_rd=1.00:0.03 / mixed_ref=1 / me_range=48 / chroma_me=1 / trellis=2 / 8x8dct=1 / cqm=0 / deadzone=21,11 / fast_pskip=1 / chroma_qp_offset=-3 / threads=6 / lookahead_threads=1 / sliced_threads=0 / nr=0 / decimate=1 / interlaced=0 / bluray_compat=0 / constrained_intra=0 / bframes=10 / b_pyramid=2 / b_adapt=2 / b_bias=0 / direct=3 / weightb=1 / open_gop=0 / weightp=2 / keyint=240 / keyint_min=23 / scenecut=40 / intra_refresh=0 / rc_lookahead=40 / rc=2pass / mbtree=1 / bitrate=915 / ratetol=1.0 / qcomp=0.60 / qpmin=0 / qpmax=69 / qpstep=4 / cplxblur=20.0 / qblur=0.5 / vbv_maxrate=50000 / vbv_bufsize=62500 / nal_hrd=none / filler=0 / ip_ratio=1.40 / aq=1:1.00
Язык : English
Default : Да
Forced : Нет

Аудио #1
Идентификатор : 2
Формат : AC-3
Формат/Информация : Audio Coding 3
Расширение режима : CM (complete main)
Параметр Endianness формата : Big
Идентификатор кодека : A_AC3
Продолжительность : 1 ч. 54 м.
Вид битрейта : Постоянный
Битрейт : 448 Кбит/сек
Каналы : 6 каналов
Расположение каналов : Front: L C R, Side: L R, LFE
Частота : 48,0 КГц
Частота кадров : 31,250 кадров/сек (1536 spf)
Битовая глубина : 16 бит
Метод сжатия : С потерями
Размер потока : 367 Мбайт (22%)
Заголовок : [License]
Язык : Russian
Default : Да
Forced : Нет

Аудио #2
Идентификатор : 3
Формат : AC-3
Формат/Информация : Audio Coding 3
Расширение режима : CM (complete main)
Параметр Endianness формата : Big
Идентификатор кодека : A_AC3
Продолжительность : 1 ч. 54 м.
Вид битрейта : Постоянный
Битрейт : 192 Кбит/сек
Каналы : 2 канала
Расположение каналов : Front: L R
Частота : 48,0 КГц
Частота кадров : 31,250 кадров/сек (1536 spf)
Битовая глубина : 16 бит
Метод сжатия : С потерями
Размер потока : 157 Мбайт (10%)
Заголовок : MVO [HDRezka Studio]
Язык : Russian
Default : Нет
Forced : Нет

Аудио #3
Идентификатор : 4
Формат : AC-3
Формат/Информация : Audio Coding 3
Расширение режима : CM (complete main)
Параметр Endianness формата : Big
Идентификатор кодека : A_AC3
Продолжительность : 1 ч. 54 м.
Вид битрейта : Постоянный
Битрейт : 448 Кбит/сек
Каналы : 6 каналов
Расположение каналов : Front: L C R, Side: L R, LFE
Частота : 48,0 КГц
Частота кадров : 31,250 кадров/сек (1536 spf)
Битовая глубина : 16 бит
Метод сжатия : С потерями
Размер потока : 367 Мбайт (22%)
Заголовок : Original
Язык : English
Default : Нет
Forced : Нет

Текст #1
Идентификатор : 5
Формат : UTF-8
Идентификатор кодека : S_TEXT/UTF8
Идентификатор кодека/Информация : UTF-8 Plain Text
Продолжительность : 1 ч. 47 м.
Битрейт : 48 бит/сек
Count of elements : 865
Размер потока : 38,2 Кбайт (0%)
Заголовок : Full
Язык : Russian
Default : Нет
Forced : Нет

Текст #2
Идентификатор : 6
Формат : UTF-8
Идентификатор кодека : S_TEXT/UTF8
Идентификатор кодека/Информация : UTF-8 Plain Text
Продолжительность : 1 ч. 47 м.
Битрейт : 28 бит/сек
Count of elements : 884
Размер потока : 22,5 Кбайт (0%)
Заголовок : Full
Язык : English
Default : Нет
Forced : Нет

Текст #3
Идентификатор : 7
Формат : UTF-8
Идентификатор кодека : S_TEXT/UTF8
Идентификатор кодека/Информация : UTF-8 Plain Text
Продолжительность : 1 ч. 51 м.
Битрейт : 32 бит/сек
Count of elements : 1053
Размер потока : 26,4 Кбайт (0%)
Заголовок : SDH
Язык : English
Default : Нет
Forced : Нет

Меню
00:00:00.000 : en:Chapter 01
00:03:43.014 : en:Chapter 02
00:09:09.590 : en:Chapter 03
00:16:38.998 : en:Chapter 04
00:21:25.617 : en:Chapter 05
00:25:31.655 : en:Chapter 06
00:28:41.302 : en:Chapter 07
00:36:43.784 : en:Chapter 08
00:41:19.894 : en:Chapter 09
00:50:03.375 : en:Chapter 10
00:57:51.092 : en:Chapter 11
01:02:46.179 : en:Chapter 12
01:10:34.230 : en:Chapter 13
01:17:28.727 : en:Chapter 14
01:20:28.949 : en:Chapter 15
01:25:35.338 : en:Chapter 16
01:31:59.472 : en:Chapter 17
01:37:21.710 : en:Chapter 18
01:44:02.819 : en:Chapter 19
01:49:47.247 : en:Chapter 20
01:54:39.455 : en:Chapter 21

pb.wtf



Скачать Неповиновение через торрент http://i104.fastpic.ru/big/2018/0717/4a/345bc91593d673daceddd06d9a48e44a.jpg Скачать фильм Неповиновение через торрент бесплантно в хорошем качестве Описание: Женщина возвращается в свой ортодоксальный еврейский дом после смерти раввина, своего отца. Общественное возмущение вызывает ... 8.2 10 5
Торрент: Зарегистрирован [2018-09-06 00:42] · скачан: 77 раз
Статус: √ проверено
Размер: 1.61 GB
Как cкачать? Как скачать Неповиновение через торрент | UTorrent

% Раздел Тема Автор DL S | L
Фильмы [HD 720p, 1080p] (Хороший звук DUB, MVO) [ 5.71 GB ] Неповиновение / Disobedience [2017 BDRip 720p от _denis_100 | NNNB] MVO + Original + Sub _denis_100 Скачать
1 | 0
Фильмы 2017 [DVDrip, WEB-DLRip, HDrip] (DUB, MVO) [ 1.46 GB ] Неповиновение / Disobedience [2017 BDRip] MVO [] Twi7ter Скачать
1 | 0
Фильмы [HD 720p, 1080p] (Хороший звук DUB, MVO) [ 5.78 GB ] Неповиновение / Disobedience [2017 BDRip 720p] MVO [ BD CEE] bober100 Скачать
1 | 0
Фильмы 2017 [DVDrip, WEB-DLRip, HDrip] (DUB, MVO) [ 1.46 GB ] Неповиновение / Disobedience [2017 BDRip] MVO [ BD CEE] bober100 Скачать
1 | 0
T Фильмы [HD 720p, 1080p] (Хороший звук DUB, MVO) [ 8.89 GB ] Неповиновение / Disobedience [2018 BDRip 1080p] MVO [HDrezka Studio] bober100 Скачать
1 | 0
T Фильмы (Blu-ray, BD-Remux, HDDVD) [ 27.77 GB ] Неповиновение / Disobedience [2018 BD Remux 1080p] MVO [HDrezka Studio] bober100 Скачать
1 | 0

28-11-2019 20:33  

Отключить всю рекламу на сайте

    Дорогой пользователь! Огромная просьба, поблагодарите релизера, оцените раздачу и оставьте свои комментарий, если Вы скачали Неповиновение через торрент бесплатно! Внесите свою лепту в развитие PiratBit!
    Комментировать посты могут только пользователи прошедшие не сложную регистрацию
    Показать сообщения:    

    Неповиновение через торрент
    Скачать бесплатно Неповиновение
    Неповиновение скачать торрент
    Неповиновение смотреть онлайн
    Cкачать фильм Неповиновение бесплатно
    Неповиновение скачать торрент в хорошем качестве
    Неповиновение смотреть онлайн бесплатно в хорошем качестве


    Вы не можете начинать темы
    Вы не можете отвечать на сообщения
    Вы не можете редактировать свои сообщения
    Вы не можете удалять свои сообщения
    Вы не можете голосовать в опросах
    Вы не можете прикреплять файлы к сообщениям
    Вы можете скачивать файлы