Ссылка на приватное зеркало нашего сайта всего за 1$. Внимание количество ограничено!!!

2 сезон

iTunes

1 сезон

1

2 сезон

2 сезон

iTunes

1 сезон

RePack

30

Новинка

ВАЖНО

ИГРА 18+

pack

RePack

MK11
pack

Забери бонус

RePack

jed

!!Акция!!

Alien_Rage

RePack

fifa19

RePack

Assassins Creed: Odyssey

RePack

NEED FOR SPEED™ PAYBACK

4 сезон

9 сезон

Бесстыжие 9 сезон

Все сериалы

все сериалы на PB.wtf

RePack

FAR CRY 5
  

Ты водишь! / Tag (Джефф Томсич) [2018, комедия, BD Remux 1080p] MVO [HDrezka Studio] +DUB [iTunes] pb.wtf

Ты водишь! через торрент pb.wtf

Размер: 27.18 GB | Добавлен: 2 года 2 мес. назад | Торрент скачан:255 раз
Скачать  

06-09-2018 03:54 Ты водишь! Скачать торрент  

Ты водишь! / Tag«Основано на реальных событиях. Зуб даём!»
Год выпуска: 2018
Страна: США
Жанр: комедия
Продолжительность: 01:40:34
Перевод:

Дублированный | iTunes
Профессиональный (многоголосый) | HDrezka Studio

Субтитры: русские (full + forced), английские (full + SDH + SDH Colored)

Режиссер: Джефф Томсич

rating

В ролях:

Эд Хелмс, Лил Релл, Джон Хэмм, Аннабелль Уоллис, Джейк Джонсон, Айла Фишер, Хэннибал Бёресс, Нора Данн, Стив Берг, Джереми Реннер

Описание:

Каждый год в течение месяца пятеро друзей участвуют в беспощадно навороченной версии игры в кошки-мышки. Они играют в нее с первого класса, чтобы, рискуя собственной шеей, работой и отношениями, одолеть противника с победоносным криком: «Ты водишь!»

Качество: BD Remux 1080p
Формат: MKV

Видео: 1920x1080 (16:9), 23.976 fps, MPEG-4 AVC ~34.1 Mbps avg
Аудио#1: 48.0 kHz, AC3 Dolby Digital, 3/2 (L,C,R,l,r) + LFE ch, ~384 kbps | RUS / iTunes
Аудио#2: 48.0 kHz, AC3 Dolby Digital, 3/2 (L,C,R,l,r) + LFE ch, ~640 kbps | RUS / HDrezka Studio
Аудио#3: 48.0 kHz, DTS-HD Master Audio, 3/2 (L,C,R,l,r) + LFE ch, ~3571 kbps / 24 bits | ENG
скриншот  скриншот  скриншот  

General
Unique ID : 156001022471635119565311675069673285039 (0x755CB43CD689C609317B48B6B44CA5AF)
Complete name : Tag.2018.bdremuX...108Op.werecut.PROD.mkv
Format : Matroska
Format version : Version 4 / Version 2
File size : 27.2 GiB
Duration : 1 h 40 min
Overall bit rate mode : Variable
Overall bit rate : 38.7 Mb/s
Movie name : Tag 2018 OT werecut PROD.
Encoded date : UTC 2018-09-06 00:41:30
Writing application : mkvmerge v24.0.0 ('Beyond The Pale') 64-bit
Writing library : libebml v1.3.6 + libmatroska v1.4.9

Video
ID : 1
Format : AVC
Format/Info : Advanced Video Codec
Format profile : High@L4.1
Format settings : CABAC / 4 Ref Frames
Format settings, CABAC : Yes
Format settings, ReFrames : 4 frames
Codec ID : V_MPEG4/ISO/AVC
Duration : 1 h 40 min
Bit rate mode : Variable
Bit rate : 34.1 Mb/s
Maximum bit rate : 36.0 Mb/s
Width : 1 920 pixels
Height : 1 080 pixels
Display aspect ratio : 16:9
Frame rate mode : Constant
Frame rate : 23.976 (24000/1001) FPS
Color space : YUV
Chroma subsampling : 4:2:0
Bit depth : 8 bits
Scan type : Progressive
Bits/(Pixel*Frame) : 0.686
Stream size : 23.9 GiB (88%)
Language : English
Default : No
Forced : No

Audio #1
ID : 2
Format : AC-3
Format/Info : Audio Coding 3
Commercial name : Dolby Digital
Codec ID : A_AC3
Duration : 1 h 40 min
Bit rate mode : Constant
Bit rate : 384 kb/s
Channel(s) : 6 channels
Channel layout : L R C LFE Ls Rs
Sampling rate : 48.0 kHz
Frame rate : 31.250 FPS (1536 SPF)
Bit depth : 16 bits
Compression mode : Lossy
Stream size : 276 MiB (1%)
Language : Russian
Service kind : Complete Main
Default : Yes
Forced : Yes

Audio #2
ID : 3
Format : AC-3
Format/Info : Audio Coding 3
Commercial name : Dolby Digital
Codec ID : A_AC3
Duration : 1 h 40 min
Bit rate mode : Constant
Bit rate : 640 kb/s
Channel(s) : 6 channels
Channel layout : L R C LFE Ls Rs
Sampling rate : 48.0 kHz
Frame rate : 31.250 FPS (1536 SPF)
Bit depth : 16 bits
Compression mode : Lossy
Stream size : 460 MiB (2%)
Language : Russian
Service kind : Complete Main
Default : No
Forced : No

Audio #3
ID : 4
Format : DTS XLL
Format/Info : Digital Theater Systems
Commercial name : DTS-HD Master Audio
Codec ID : A_DTS
Duration : 1 h 40 min
Bit rate mode : Variable
Bit rate : 3 571 kb/s
Channel(s) : 6 channels
Channel layout : C L R Ls Rs LFE
Sampling rate : 48.0 kHz
Frame rate : 93.750 FPS (512 SPF)
Bit depth : 24 bits
Compression mode : Lossless
Stream size : 2.51 GiB (9%)
Language : English
Default : No
Forced : No

Text #1
ID : 5
Format : UTF-8
Codec ID : S_TEXT/UTF8
Codec ID/Info : UTF-8 Plain Text
Duration : 1 h 40 min
Bit rate : 1 b/s
Count of elements : 18
Stream size : 843 Bytes (0%)
Language : Russian
Default : Yes
Forced : Yes

Text #2
ID : 6
Format : UTF-8
Codec ID : S_TEXT/UTF8
Codec ID/Info : UTF-8 Plain Text
Duration : 1 h 40 min
Bit rate : 132 b/s
Count of elements : 1953
Stream size : 96.7 KiB (0%)
Language : Russian
Default : No
Forced : No

Text #3
ID : 7
Format : UTF-8
Codec ID : S_TEXT/UTF8
Codec ID/Info : UTF-8 Plain Text
Duration : 1 h 39 min
Bit rate : 91 b/s
Count of elements : 1965
Stream size : 66.9 KiB (0%)
Language : English
Default : No
Forced : No

Text #4
ID : 8
Format : UTF-8
Codec ID : S_TEXT/UTF8
Codec ID/Info : UTF-8 Plain Text
Duration : 1 h 40 min
Bit rate : 99 b/s
Count of elements : 2143
Stream size : 73.0 KiB (0%)
Title : SDH
Language : English
Default : No
Forced : No

Text #5
ID : 9
Format : UTF-8
Codec ID : S_TEXT/UTF8
Codec ID/Info : UTF-8 Plain Text
Duration : 1 h 40 min
Bit rate : 117 b/s
Count of elements : 2143
Stream size : 86.2 KiB (0%)
Title : SDH Colored
Language : English
Default : No
Forced : No

Menu
00:00:00.000 : en:Chapter 01
00:09:24.230 : en:Chapter 02
00:17:04.481 : en:Chapter 03
00:28:18.863 : en:Chapter 04
00:36:56.214 : en:Chapter 05
00:46:16.398 : en:Chapter 06
00:56:28.259 : en:Chapter 07
01:06:09.465 : en:Chapter 08
01:18:02.719 : en:Chapter 09
01:26:30.101 : en:Chapter 10
01:35:55.958 : en:Chapter 11
01:40:33.652 : en:Chapter 12

pb.wtf



Скачать Ты водишь! через торрент http://b.radikal.ru/b38/1809/08/39a6eed07211.png Скачать фильм Ты водишь! через торрент бесплантно в хорошем качестве Описание: Каждый год в течение месяца пятеро друзей участвуют в беспощадно навороченной версии игры в кошки-мышки. Они играют в нее с ... 10 10 7
Info! Золотая раздача, скачанное не засчитывается.
Торрент: Зарегистрирован [2018-09-06 03:54] · скачан: 255 раз
Статус: √ проверено
Размер: 27.18 GB
Как cкачать? Как скачать Ты водишь! через торрент | qTorrent

% Раздел Тема Автор DL S | L
Фильмы 2018 [DVDrip, WEB-DLRip, HDrip] (DUB, MVO) [ 748 MB ] Ты водишь! / Tag [2018 HDRip] DUB [ BD EUR] bober100 Скачать
1 | 0
Ultra HD (UHD: 2K, 4K, 8K) — видео сверхвысокой чёткости [ 14.93 GB ] Ты водишь! / Tag [2018 UHD WEBRip 2160p] MVO [HDrezka Studio] +DUB [] bober100 Скачать
1 | 0
Фильмы 2018 [DVDrip, WEB-DLRip, HDrip] (DUB, MVO) [ 1.84 GB ] Ты водишь! / Tag [2018 BDRip-AVC] - ExKinoRay Enigma2010 Скачать
1 | 0
Фильмы 2018 [DVDrip, WEB-DLRip, HDrip] (DUB, MVO) [ 1.46 GB ] Ты водишь! / Tag [2018 BDRip-AVC] DUB [] bober100 Скачать
1 | 0
Фильмы (Blu-ray, BD-Remux, HDDVD) [ 34.72 GB ] Ты водишь! / Tag [2018 Blu-ray 1080p] DUB [] bober100 Скачать
1 | 0
Фильмы [HD 720p, 1080p] (Хороший звук DUB, MVO) [ 12.6 GB ] Ты водишь! / Tag [2018 BDRip 1080p] DUB [] bober100 Скачать
1 | 0
Фильмы 2018 [DVDrip, WEB-DLRip, HDrip] (DUB, MVO) [ 1.46 GB ] Ты водишь! / Tag [2018 BDRip] DUB [ BD EUR] bober100 Скачать
1 | 0

28-11-2019 20:33  

Отключить всю рекламу на сайте

06-09-2018 10:19 Ты водишь! Скачать торрент  

Шикарный фильмец.pb.wtf



    Дорогой пользователь! Огромная просьба, поблагодарите релизера, оцените раздачу и оставьте свои комментарий, если Вы скачали Ты водишь! через торрент бесплатно! Внесите свою лепту в развитие PiratBit!
    Комментировать посты могут только пользователи прошедшие не сложную регистрацию
    Показать сообщения:    

    Ты водишь! через торрент
    Скачать бесплатно Ты водишь!
    Ты водишь! скачать торрент
    Ты водишь! смотреть онлайн
    Cкачать фильм Ты водишь! бесплатно
    Ты водишь! скачать торрент в хорошем качестве
    Ты водишь! смотреть онлайн бесплатно в хорошем качестве


    Вы не можете начинать темы
    Вы не можете отвечать на сообщения
    Вы не можете редактировать свои сообщения
    Вы не можете удалять свои сообщения
    Вы не можете голосовать в опросах
    Вы не можете прикреплять файлы к сообщениям
    Вы можете скачивать файлы