2 сезон

iTunes

1 сезон

1

iTunes

iTunes

iTunes

1 сезон

RePack

30

ИГРА 18+

pack

ВАЖНО

!!Акция!!

Alien_RageХит недели

RePack

MK11
pack

Забери бонус

RePack

jed

!!Акция!!

Alien_Rage

RePack

fifa19

RePack

Assassins Creed: Odyssey

RePack

NEED FOR SPEED™ PAYBACK

4 сезон

9 сезон

Бесстыжие 9 сезон

Все сериалы

все сериалы на PB.wtf

RePack

FAR CRY 5
  

Лесник. Своя земля / Сезон: 4 / Серии: 1-60 из 60 (Александр Калугин, Борис Казаков) [2017, Детектив, криминал, мелодрама, WEB-DLRip] pb.wtf

Лесник. Своя земля через торрент pb.wtf

Размер: 36.83 GB | Добавлен: 2 года 1 мес. назад | Торрент скачан:25 раз
Скачать  

06-09-2018 06:35 Лесник. Своя земля Скачать торрент  

Лесник. Своя земляГод выпуска: 2017
Страна: Россия
Жанр: Детектив, криминал, мелодрама
Продолжительность: ~ 00:44:00
Субтитры: отсутствуют

Режиссер: Александр Калугин, Борис Казаков



В ролях:

Олег Штефанко, Анна Большова, Алексей Булдаков, Нина Гогаева, Михаил Васьков, Александр Тютин, Владимир Тимофеев, Николай Сморчков, Вадим Александров, Михаил Солодко, Наталия Санько, Татьяна Журавлева, Янина Бугрова, Сергей Рубеко, Юлия Куварзина, Наталья Дворецкая, Виталий Абдулов, Артём Кобзев, Ирина Аверина, Константин Юдаев, Александр Серов-Останкинский, Анатолий Филиппов, Илья Ермолов

Описание:

У Леонида Зубова появляется новый враг — смотрящий по Навлинскому району, авторитет Саша Рафинад. Зубов хорошо знаком с ним — они отбывали срок в одной зоне, где Рафинад числился авторитетом. А так как основной доходный бизнес района — лес, то конфликт между лесником и смотрящим стремительно переходит в войну.

Качество: WEB-DLRip
Формат: AVI

Видео: XviD, ~ 1600 Кбит/с, 720x400
Аудио: AC3, 2 ch, 192 Кбит/с
скриншот  скриншот  скриншот  скриншот  скриншот  

Общее
Полное имя : D:\Лесник-4. Своя земля.2016.WEB-DLRip.Files-x\01.Лесник-4. Своя земля.2016.WEB-DLRip.Files-x.avi
Формат : AVI
Формат/Информация : Audio Video Interleave
Размер файла : 601 Мбайт
Продолжительность : 49 м. 19 с.
Общий поток : 1703 Кбит/сек
Программа кодирования : VirtualDubMod 1.5.10.3 | www.virtualdub-fr.org || (build 2550/release)
Библиотека кодирования : VirtualDubMod build 2550/release

Видео
Идентификатор : 0
Формат : MPEG-4 Visual
Профиль формата : Advanced Simple@L5
Параметр BVOP формата : 1
Параметр QPel формата : Нет
Параметр GMC формата : Без точки перехода
Параметр матрицы формата : Выборочная
Идентификатор кодека : XVID
Идентификатор кодека/Подсказка : XviD
Продолжительность : 49 м. 19 с.
Битрейт : 1501 Кбит/сек
Ширина : 720 пикселей
Высота : 400 пикселей
Соотношение сторон : 16:9
Частота кадров : 25,000 кадров/сек
Цветовое пространство : YUV
Субдискретизация насыщенности : 4:2:0
Битовая глубина : 8 бит
Тип развёртки : Прогрессивная
Метод сжатия : С потерями
Бит/(Пиксели*Кадры) : 0.208
Размер потока : 530 Мбайт (88%)
Библиотека кодирования : XviD 73

Аудио
Идентификатор : 1
Формат : AC-3
Формат/Информация : Audio Coding 3
Расширение режима : CM (complete main)
Параметр Endianness формата : Big
Идентификатор кодека : 2000
Продолжительность : 49 м. 19 с.
Вид битрейта : Постоянный
Битрейт : 192 Кбит/сек
Каналы : 2 канала
Расположение каналов : Front: L R
Частота : 48,0 КГц
Частота кадров : 31,250 кадров/сек (1536 spf)
Метод сжатия : С потерями
Размер потока : 67,7 Мбайт (11%)
Выравнивание : Разделение по промежуткам
Продолжительность промежутка : 40 мс. (1,00 видеокадр)
Время предзагрузки промежутка : 500 мс.

pb.wtf



Скачать Лесник. Своя земля через торрент http://i91.fastpic.ru/big/2017/0313/cb/9de0c91ea3e48901e77f41ea460708cb.jpg Скачать фильм Лесник. Своя земля через торрент бесплантно в хорошем качестве Описание: У Леонида Зубова появляется новый враг — смотрящий по Навлинскому району, авторитет Саша Рафинад. Зубов хорошо знаком с ним — они ... 10 10 3
Info! Золотая раздача, скачанное не засчитывается.
Торрент: Зарегистрирован [2018-09-06 06:35] · скачан: 25 раз
Статус: √ проверено
Размер: 36.83 GB
Как cкачать? Как скачать Лесник. Своя земля через торрент | qTorrent

% Раздел Тема Автор DL S | L
Наши сериалы [ 36.66 GB ] Лесник. Своя земля / Сезон: 4 / Серии: 1-60 из 60 [2017 HDTVRip] bober100 Скачать
1 | 0
Наши сериалы [ 174.58 GB ] Лесник. Своя земля / Сезон: 4 / Серии: 1-60 из 60 [2017 HDTV 1080i] bober100 Скачать
1 | 0
Наши сериалы [ 85.93 GB ] Лесник. Своя земля / Сезон: 4 / Серии: 1-60 из 60 [2017 HDTVRip 720p] bober100 Скачать
1 | 0
Наши сериалы [ 45.91 GB ] Лесник. Своя земля / Сезон: 4 / Серии: 1-60 из 60 [2017 HDTVRip-AVC] bober100 Скачать
1 | 0
Наши сериалы [ 40.22 GB ] Лесник. Своя земля / Сезон: 4 / Серии: 1-60 из 60 [2017 SATRip] bober100 Скачать
1 | 0

28-11-2019 20:33  

Отключить всю рекламу на сайте

    Дорогой пользователь! Огромная просьба, поблагодарите релизера, оцените раздачу и оставьте свои комментарий, если Вы скачали Лесник. Своя земля через торрент бесплатно! Внесите свою лепту в развитие PiratBit!
    Комментировать посты могут только пользователи прошедшие не сложную регистрацию
    Показать сообщения:    

    Лесник. Своя земля через торрент
    Скачать бесплатно Лесник. Своя земля
    Лесник. Своя земля скачать торрент
    Лесник. Своя земля смотреть онлайн
    Cкачать фильм Лесник. Своя земля бесплатно
    Лесник. Своя земля скачать торрент в хорошем качестве
    Лесник. Своя земля смотреть онлайн бесплатно в хорошем качестве


    Вы не можете начинать темы
    Вы не можете отвечать на сообщения
    Вы не можете редактировать свои сообщения
    Вы не можете удалять свои сообщения
    Вы не можете голосовать в опросах
    Вы не можете прикреплять файлы к сообщениям
    Вы можете скачивать файлы