Ссылка на приватное зеркало всего за 1$. Внимание количество ограничено!!!


iTunes

1+1

iTunes

мы

WEB-DL

1

iTunes

Чернобыль

iTunes

Ральф против интернета

Лицензия

ПШазам

Лицензия

Оно 2

WEB-DL

30
pack

Вам бонус

ВАЖНО

!!Акция!!

Alien_RageХит недели

RePack

Resident Evil 21

ИГРА 18+

pack

RePack

jed

!!Акция!!

Alien_Rage

RePack

fifa19

RePack

Assassins Creed: Odyssey

RePack

NEED FOR SPEED™ PAYBACK

4 сезон

9 сезон

Бесстыжие 9 сезон

Все сериалы

все сериалы на PB.wtf

RePack

FAR CRY 5
Ребята, катастрофически не хватает 1900р. для оплаты серверов за Октябрь (всвязи с блокировками трафик упал в 3 раза), 1-2р., выручайте.
  

Зубастики : Антология / Critters : Antology (Стивен Херек, Мик Гэррис, Кристин Питерсон, Руперт Харви) [1986 - 1992 г., ужасы, фантастика, боевик, триллер, комедия, WEB-DLRip-AVC] MVO, AVO pb.wtf

Зубастики : Антология через торрент pb.wtf

Размер: 8.72 GB | Добавлен: 1 год 3 мес. назад | Торрент скачан:63 раза
Скачать  

06-09-2018 20:37 Зубастики : Антология Скачать торрент  

Зубастики : Антология / Critters : Antology
Год выпуска: 1986-1992

Страна: США

Жанр: Ужасы, фантастика, боевик, триллер, комедия

Перевод: Профессиональный (многоголосый закадровый) Союз-Видео, авторский (одноголосый закадровый) Гаврилов, Горчаков, Дохалов, Живов

Субтитры: Русские, английские

Режиссер: Стивен Херек, Мик Гэррис, Кристин Питерсон, Руперт Харви

В ролях: Ди Уоллес-Стоун, Билли Грин Буш, Скотт Граймз, Надин Ван дер Велде, Дон Кит Оппер, Билли Зейн, Итэн Филлипс, Терренс Манн, Джереми Лоуренс, Лин Шэй, Майкл Ли Годжин, Синтия Гэррис, Аль Стивенсон, Том Ходжис, Дуглас Роу, Лиан Александра Кёртис, Линдси Паркер, Херта Уэр, Джон Кэлвин, Айми Брукс, Кристиан Казинс, Джозеф Казинс, Уильям Дэннис Хант, Нина Аксельрод, Леонардо ДиКаприо, Джеффри Блейк, Пол Уайтторн, Андерс Хове, Анджела Бассетт

Качество: WEB-DLRip AVC

Формат: MKV

Видео кодек: MPEG-4 AVC

Аудио кодек: AC3
Зубастики / Critters
Год выпуска: 1986

Жанр: Ужасы, фантастика, боевик, триллер, комедия

Страна: США

Режиссер: Стивен Херек

rating

В ролях: Ди Уоллас-Стоун, М. Эммет Уолш, Билли Грин Баш, Скотт Кримес, Надин Ван дер Велд, Дон Кейт Оппер, Билли Зейн, Этан Филлипс, Терренс Манн, Джереми Лоуренс, Лин Шей, Майкл Ли Гогин, Арт Франкел, Дуглас Кот, Монтроз Хагинс

Сюжет фильма: Они не вышли ростом, но по свирепости с ними не сравнится ни одно земное существо — это Зубастики! Мохнатые безжалостные твари с ужасающей пастью прибыли из космоса, чтобы уничтожить цивилизацию людей.
И начали они с обычной сельской фермы в Канзасе, где сжирают всё, что попадается им на зуб (в том числе и людей). Хорошо, что в космосе есть ещё и отважные герои, которые приходят на помощь перепуганным местным жителям. Только объединённые усилия и хитроумная стратегия помогут победить прожорливых инопланетных зверушек.

Продолжительность: 01:22:22

Качество видео: WEB-DLRip AVC

Видео: кодек: MPEG-4 AVC, размер кадра: 1024x576, битрейт: 2444 Кбит/сек

Аудио #1: язык: Русский, перевод: профессиональный (многоголосый, закадровый) Союз-Видео, кодек: AC3, битрейт: 448 Кбит/сек

Аудио #2: язык: Русский, перевод: авторский (одноголосый, закадровый) Гаврилов, кодек: AC3, битрейт: 448 Кбит/сек

Аудио #3: язык: Английский, кодек: AC3, битрейт: 448 Кбит/сек

Субтитры: Русские, английские
Видео
Идентификатор : 1
Формат : AVC
Формат/Информация : Advanced Video Codec
Профиль формата : High@L4.1
Настройки формата : CABAC / 12 Ref Frames
Параметр CABAC формата : Да
Параметр RefFrames формата : 12 кадров
Идентификатор кодека : V_MPEG4/ISO/AVC
Продолжительность : 1 ч. 22 м.
Битрейт : 2444 Кбит/сек
Ширина : 1024 пикселя
Высота : 576 пикселей
Соотношение сторон : 16:9
Режим частоты кадров : Постоянный
Частота кадров : 25,000 кадров/сек
Цветовое пространство : YUV
Субдискретизация насыщенности : 4:2:0
Битовая глубина : 8 бит
Тип развёртки : Прогрессивная
Бит/(Пиксели*Кадры) : 0.166
Размер потока : 1,41 Гбайт (64%)
Заголовок : MPEG-4, 1024x576, 29.970 fps ~2444 kbps
Библиотека кодирования : x264 core 142 r2479 dd79a61
Настройки программы : cabac=1 / ref=12 / deblock=1:-3:-2 / analyse=0x3:0x113 / me=umh / subme=10 / psy=1 / psy_rd=1.00:0.15 / mixed_ref=1 / me_range=24 / chroma_me=1 / trellis=2 / 8x8dct=1 / cqm=0 / deadzone=21,11 / fast_pskip=0 / chroma_qp_offset=-3 / threads=3 / lookahead_threads=1 / sliced_threads=0 / nr=0 / decimate=1 / interlaced=0 / bluray_compat=0 / constrained_intra=0 / bframes=15 / b_pyramid=2 / b_adapt=2 / b_bias=0 / direct=3 / weightb=1 / open_gop=0 / weightp=2 / keyint=250 / keyint_min=25 / scenecut=40 / intra_refresh=0 / rc_lookahead=50 / rc=2pass / mbtree=0 / bitrate=2444 / ratetol=1.0 / qcomp=0.60 / qpmin=0 / qpmax=69 / qpstep=4 / cplxblur=20.0 / qblur=0.5 / vbv_maxrate=62500 / vbv_bufsize=78125 / nal_hrd=none / filler=0 / ip_ratio=1.40 / pb_ratio=1.30 / aq=1:1.00
Язык : English
Default : Да
Forced : Нет
Цветовой диапазон : Limited
Основные цвета : BT.709
Характеристики трансфера : BT.709
Коэффициенты матрицы : BT.709

Аудио #1
Идентификатор : 2
Формат : AC-3
Формат/Информация : Audio Coding 3
Идентификатор кодека : A_AC3
Продолжительность : 1 ч. 22 м.
Вид битрейта : Постоянный
Битрейт : 448 Кбит/сек
Каналы : 6 каналов
Расположение каналов : Front: L C R, Side: L R, LFE
Частота : 48,0 КГц
Частота кадров : 31,250 кадров/сек (1536 SPF)
Битовая глубина : 16 бит
Метод сжатия : С потерями
Размер потока : 264 Мбайт (12%)
Заголовок : 48 KHz, AC3, 6 ch ~448 Kbps - DVO [Инис|Союз-Видео]
Язык : Russian
ServiceKind/String : Complete Main
Default : Да
Forced : Нет

Аудио #2
Идентификатор : 3
Формат : AC-3
Формат/Информация : Audio Coding 3
Идентификатор кодека : A_AC3
Продолжительность : 1 ч. 22 м.
Вид битрейта : Постоянный
Битрейт : 448 Кбит/сек
Каналы : 6 каналов
Расположение каналов : Front: L C R, Side: L R, LFE
Частота : 48,0 КГц
Частота кадров : 31,250 кадров/сек (1536 SPF)
Битовая глубина : 16 бит
Метод сжатия : С потерями
Размер потока : 264 Мбайт (12%)
Заголовок : 48 KHz, AC3, 6 ch ~448 Kbps - AVO [Гаврилов]
Язык : Russian
ServiceKind/String : Complete Main
Default : Нет
Forced : Нет

Аудио #3
Идентификатор : 4
Формат : AC-3
Формат/Информация : Audio Coding 3
Идентификатор кодека : A_AC3
Продолжительность : 1 ч. 22 м.
Вид битрейта : Постоянный
Битрейт : 448 Кбит/сек
Каналы : 6 каналов
Расположение каналов : Front: L C R, Side: L R, LFE
Частота : 48,0 КГц
Частота кадров : 31,250 кадров/сек (1536 SPF)
Битовая глубина : 16 бит
Метод сжатия : С потерями
Размер потока : 264 Мбайт (12%)
Заголовок : 48 KHz, AC3, 6 ch ~448 Kbps - Original
Язык : English
ServiceKind/String : Complete Main
Default : Нет
Forced : Нет

Текст #1
Идентификатор : 5
Формат : ASS
Идентификатор кодека : S_TEXT/ASS
Идентификатор кодека/Информация : Advanced Sub Station Alpha
Продолжительность : 1 ч. 17 м.
Битрейт : 66 бит/сек
ElementCount : 579
Метод сжатия : Без потерь
Размер потока : 37,7 Кбайт (0%)
Язык : Russian
Default : Нет
Forced : Нет

Текст #2
Идентификатор : 6
Формат : ASS
Идентификатор кодека : S_TEXT/ASS
Идентификатор кодека/Информация : Advanced Sub Station Alpha
Продолжительность : 1 ч. 16 м.
Битрейт : 60 бит/сек
ElementCount : 690
Метод сжатия : Без потерь
Размер потока : 33,7 Кбайт (0%)
Язык : English
Default : Нет
Forced : Нет

Меню
00:00:00.000 : :Chapter 1
00:04:57.080 : :Chapter 2
00:08:18.080 : :Chapter 3
00:10:32.080 : :Chapter 4
00:13:20.080 : :Chapter 5
00:17:28.080 : :Chapter 6
00:22:26.080 : :Chapter 7
00:25:59.120 : :Chapter 8
00:31:25.120 : :Chapter 9
00:37:51.120 : :Chapter 10
00:41:05.080 : :Chapter 11
00:43:08.080 : :Chapter 12
00:47:41.080 : :Chapter 13
00:52:28.080 : :Chapter 14
00:55:17.120 : :Chapter 15
00:57:03.120 : :Chapter 16
01:01:32.080 : :Chapter 17
01:06:47.080 : :Chapter 18
01:15:41.080 : :Chapter 19
01:18:19.080 : :Chapter 20



Зубастики 2 / Critters 2
Год выпуска: 1988

Жанр: Ужасы, фантастика, боевик, триллер, комедия

Страна: США

Режиссер: Мик Гэррис

rating

В ролях: Терренс Манн, Дон Кит Оппер, Синтия Гэррис, Скотт Граймз, Аль Стивенсон, Том Ходжис, Дуглас Роу, Лиан Александра Кёртис, Линдси Паркер, Херта Уэр, Сэм Андерсон, Лин Шэй, Бэрри Корбин, Эдди Дизен, Фрэнк Бирни, Дэвид Эрсин, Роксэнн Кернохан, Грегори Патрик, Том Маклафлин, Патрик Кэмпбелл, Монтроуз Хагинс, Кендес Лофлин

Сюжет фильма: Прошло 2 года с тех пор, как гадкие зубастые существа впервые терроризировали городок Гроверз Бенд и разгромили ферму Браунов. Пришло время, и из огромных зелёных яиц стали вылупляться Зубастики, как раз ко дню Святой Пасхи. Сорвав церковную службу, они вновь начинают пожирать всё на своем пути. К счастью, в город приезжает храбрый юноша Брэд Браун, который объединяется со своими старыми друзьями космическими охотниками и вступает в бой с Зубастиками.

Продолжительность: 01:22:18

Качество видео: WEB-DLRip AVC

Видео: кодек: MPEG-4 AVC, размер кадра: 1024x576, битрейт: 2450 Кбит/сек

Аудио #1: язык: Русский, перевод: профессиональный (многоголосый, закадровый) Союз-Видео, кодек: AC3, битрейт: 448 Кбит/сек

Аудио #2: язык: Русский, перевод: авторский (одноголосый, закадровый) Гаврилов, кодек: AC3, битрейт: 448 Кбит/сек

Аудио #3: язык: Английский, кодек: AC3, битрейт: 448 Кбит/сек

Субтитры: Русские, английские
Видео
Идентификатор : 1
Формат : AVC
Формат/Информация : Advanced Video Codec
Профиль формата : High@L4.1
Настройки формата : CABAC / 12 Ref Frames
Параметр CABAC формата : Да
Параметр RefFrames формата : 12 кадров
Идентификатор кодека : V_MPEG4/ISO/AVC
Продолжительность : 1 ч. 22 м.
Битрейт : 2450 Кбит/сек
Ширина : 1024 пикселя
Высота : 576 пикселей
Соотношение сторон : 16:9
Режим частоты кадров : Постоянный
Частота кадров : 25,000 кадров/сек
Цветовое пространство : YUV
Субдискретизация насыщенности : 4:2:0
Битовая глубина : 8 бит
Тип развёртки : Прогрессивная
Бит/(Пиксели*Кадры) : 0.166
Размер потока : 1,41 Гбайт (65%)
Заголовок : MPEG-4, 1024x576, 25.000 fps ~2450 kbps
Библиотека кодирования : x264 core 142 r2479 dd79a61
Настройки программы : cabac=1 / ref=12 / deblock=1:-2:-2 / analyse=0x3:0x113 / me=umh / subme=10 / psy=1 / psy_rd=1.00:0.15 / mixed_ref=1 / me_range=24 / chroma_me=1 / trellis=2 / 8x8dct=1 / cqm=0 / deadzone=21,11 / fast_pskip=0 / chroma_qp_offset=-3 / threads=3 / lookahead_threads=1 / sliced_threads=0 / nr=0 / decimate=1 / interlaced=0 / bluray_compat=0 / constrained_intra=0 / bframes=14 / b_pyramid=2 / b_adapt=2 / b_bias=0 / direct=3 / weightb=1 / open_gop=0 / weightp=2 / keyint=250 / keyint_min=25 / scenecut=40 / intra_refresh=0 / rc_lookahead=50 / rc=2pass / mbtree=0 / bitrate=2450 / ratetol=1.0 / qcomp=0.60 / qpmin=0 / qpmax=69 / qpstep=4 / cplxblur=20.0 / qblur=0.5 / vbv_maxrate=62500 / vbv_bufsize=78125 / nal_hrd=none / filler=0 / ip_ratio=1.40 / pb_ratio=1.30 / aq=1:1.00
Язык : English
Default : Да
Forced : Нет
Цветовой диапазон : Limited
Основные цвета : BT.709
Характеристики трансфера : BT.709
Коэффициенты матрицы : BT.709

Аудио #1
Идентификатор : 2
Формат : AC-3
Формат/Информация : Audio Coding 3
Идентификатор кодека : A_AC3
Продолжительность : 1 ч. 22 м.
Вид битрейта : Постоянный
Битрейт : 448 Кбит/сек
Каналы : 6 каналов
Расположение каналов : Front: L C R, Side: L R, LFE
Частота : 48,0 КГц
Частота кадров : 31,250 кадров/сек (1536 SPF)
Битовая глубина : 16 бит
Метод сжатия : С потерями
Размер потока : 264 Мбайт (12%)
Заголовок : 48 KHz, AC3, 6 ch ~448 Kbps - DVO [Инис|Союз-Видео]
Язык : Russian
ServiceKind/String : Complete Main
Default : Да
Forced : Нет

Аудио #2
Идентификатор : 3
Формат : AC-3
Формат/Информация : Audio Coding 3
Идентификатор кодека : A_AC3
Продолжительность : 1 ч. 22 м.
Вид битрейта : Постоянный
Битрейт : 448 Кбит/сек
Каналы : 6 каналов
Расположение каналов : Front: L C R, Side: L R, LFE
Частота : 48,0 КГц
Частота кадров : 31,250 кадров/сек (1536 SPF)
Битовая глубина : 16 бит
Метод сжатия : С потерями
Размер потока : 264 Мбайт (12%)
Заголовок : 48 KHz, AC3, 6 ch ~448 Kbps - AVO [Гаврилов]
Язык : Russian
ServiceKind/String : Complete Main
Default : Нет
Forced : Нет

Аудио #3
Идентификатор : 4
Формат : AC-3
Формат/Информация : Audio Coding 3
Идентификатор кодека : A_AC3
Продолжительность : 1 ч. 22 м.
Вид битрейта : Постоянный
Битрейт : 448 Кбит/сек
Каналы : 6 каналов
Расположение каналов : Front: L C R, Side: L R, LFE
Частота : 48,0 КГц
Частота кадров : 31,250 кадров/сек (1536 SPF)
Битовая глубина : 16 бит
Метод сжатия : С потерями
Размер потока : 264 Мбайт (12%)
Заголовок : 48 KHz, AC3, 6 ch ~448 Kbps - Original
Язык : English
ServiceKind/String : Complete Main
Default : Нет
Forced : Нет

Текст #1
Идентификатор : 5
Формат : ASS
Идентификатор кодека : S_TEXT/ASS
Идентификатор кодека/Информация : Advanced Sub Station Alpha
Продолжительность : 1 ч. 17 м.
Битрейт : 70 бит/сек
ElementCount : 627
Метод сжатия : Без потерь
Размер потока : 40,1 Кбайт (0%)
Язык : Russian
Default : Нет
Forced : Нет

Текст #2
Идентификатор : 6
Формат : ASS
Идентификатор кодека : S_TEXT/ASS
Идентификатор кодека/Информация : Advanced Sub Station Alpha
Продолжительность : 1 ч. 20 м.
Битрейт : 72 бит/сек
ElementCount : 859
Метод сжатия : Без потерь
Размер потока : 42,5 Кбайт (0%)
Язык : English
Default : Нет
Forced : Нет

Меню
00:00:00.000 : :Chapter 1
00:04:41.080 : :Chapter 2
00:07:18.080 : :Chapter 3
00:09:57.080 : :Chapter 4
00:11:20.120 : :Chapter 5
00:14:45.080 : :Chapter 6
00:16:13.080 : :Chapter 7
00:18:31.120 : :Chapter 8
00:20:25.080 : :Chapter 9
00:23:59.120 : :Chapter 10
00:27:50.120 : :Chapter 11
00:33:19.080 : :Chapter 12
00:36:16.120 : :Chapter 13
00:38:33.120 : :Chapter 14
00:48:51.120 : :Chapter 15
00:56:36.120 : :Chapter 16
00:58:53.080 : :Chapter 17
01:05:19.120 : :Chapter 18
01:11:48.120 : :Chapter 19



Зубастики 3 / Critters 3
Год выпуска: 1991

Жанр: Ужасы, фантастика, боевик, триллер, комедия

Страна: США

Режиссер: Кристин Питерсон

rating

В ролях: Джон Кэлвин, Айми Брукс, Кристиан Казинс, Джозеф Казинс, Уильям Дэннис Хант, Нина Аксельрод, Леонардо ДиКаприо, Дон Кит Оппер, Джеффри Блейк, Хосе Луис Валансуэла, Диана Беллами, Кэтрин Кортес, Фрэнсис Бэй, Билл Закерт, Терренс Манн, Билли Грин Буш, Скотт Граймз, Дэвид Эрсин, Надин Ван дер Велде, Ди Уоллес-Стоун

Сюжет фильма: На этот раз мохнатые пришельцы из космоса захватывают дом в Лос-Анджелесе. Они выгоняют на улицу всех его обитателей. Космический Охотник встаёт на их защиту и сам становится дичью, которую Зубастики преследуют во всех таинственных уголках дома…

Продолжительность: 01:21:17

Качество видео: WEB-DLRip AVC

Видео: кодек: MPEG-4 AVC, размер кадра: 1024x576, битрейт: 2365 Кбит/сек

Аудио #1: язык: Русский, перевод: профессиональный (многоголосый, закадровый) Союз-Видео, кодек: AC3, битрейт: 448 Кбит/сек

Аудио #2: язык: Русский, перевод: профессиональный (многоголосый, закадровый) ГТРК Россия, кодек: AC3, битрейт: 192 Кбит/сек

Аудио #3: язык: Русский, перевод: авторский (одноголосый, закадровый) Гаврилов, кодек: AC3, битрейт: 192 Кбит/сек

Аудио #4: язык: Русский, перевод: авторский (одноголосый, закадровый) Горчаков, кодек: AC3, битрейт: 192 Кбит/сек

Аудио #5: язык: Английский, кодек: AC3, битрейт: 448 Кбит/сек

Субтитры: Русские, английские
Видео
Идентификатор : 1
Формат : AVC
Формат/Информация : Advanced Video Codec
Профиль формата : High@L4.1
Настройки формата : CABAC / 11 Ref Frames
Параметр CABAC формата : Да
Параметр RefFrames формата : 11 кадров
Идентификатор кодека : V_MPEG4/ISO/AVC
Продолжительность : 1 ч. 21 м.
Битрейт : 2365 Кбит/сек
Ширина : 1024 пикселя
Высота : 576 пикселей
Соотношение сторон : 16:9
Режим частоты кадров : Постоянный
Частота кадров : 25,000 кадров/сек
Цветовое пространство : YUV
Субдискретизация насыщенности : 4:2:0
Битовая глубина : 8 бит
Тип развёртки : Прогрессивная
Бит/(Пиксели*Кадры) : 0.160
Размер потока : 1,34 Гбайт (62%)
Заголовок : MPEG-4, 1024x576, 25.000 fps ~2365 kbps
Библиотека кодирования : x264 core 142 r2479 dd79a61
Настройки программы : cabac=1 / ref=11 / deblock=1:-3:-2 / analyse=0x3:0x113 / me=umh / subme=10 / psy=1 / psy_rd=1.00:0.15 / mixed_ref=1 / me_range=24 / chroma_me=1 / trellis=2 / 8x8dct=1 / cqm=0 / deadzone=21,11 / fast_pskip=0 / chroma_qp_offset=-3 / threads=3 / lookahead_threads=1 / sliced_threads=0 / nr=0 / decimate=1 / interlaced=0 / bluray_compat=0 / constrained_intra=0 / bframes=13 / b_pyramid=2 / b_adapt=2 / b_bias=0 / direct=3 / weightb=1 / open_gop=0 / weightp=2 / keyint=250 / keyint_min=25 / scenecut=40 / intra_refresh=0 / rc_lookahead=50 / rc=2pass / mbtree=0 / bitrate=2365 / ratetol=1.0 / qcomp=0.60 / qpmin=0 / qpmax=69 / qpstep=4 / cplxblur=20.0 / qblur=0.5 / vbv_maxrate=62500 / vbv_bufsize=78125 / nal_hrd=none / filler=0 / ip_ratio=1.40 / pb_ratio=1.30 / aq=1:1.00
Язык : English
Default : Да
Forced : Нет
Цветовой диапазон : Limited
Основные цвета : BT.709
Характеристики трансфера : BT.709
Коэффициенты матрицы : BT.709

Аудио #1
Идентификатор : 2
Формат : AC-3
Формат/Информация : Audio Coding 3
Идентификатор кодека : A_AC3
Продолжительность : 1 ч. 21 м.
Вид битрейта : Постоянный
Битрейт : 448 Кбит/сек
Каналы : 6 каналов
Расположение каналов : Front: L C R, Side: L R, LFE
Частота : 48,0 КГц
Частота кадров : 31,250 кадров/сек (1536 SPF)
Битовая глубина : 16 бит
Метод сжатия : С потерями
Размер потока : 261 Мбайт (12%)
Заголовок : 48 KHz, AC3, 6 ch ~448 Kbps - DVO [Инис|Союз-Видео]
Язык : Russian
ServiceKind/String : Complete Main
Default : Да
Forced : Нет

Аудио #2
Идентификатор : 3
Формат : AC-3
Формат/Информация : Audio Coding 3
Идентификатор кодека : A_AC3
Продолжительность : 1 ч. 21 м.
Вид битрейта : Постоянный
Битрейт : 192 Кбит/сек
Каналы : 2 канала
Расположение каналов : Front: L R
Частота : 48,0 КГц
Частота кадров : 31,250 кадров/сек (1536 SPF)
Битовая глубина : 16 бит
Метод сжатия : С потерями
Размер потока : 112 Мбайт (5%)
Заголовок : 48 KHz, AC3, 2 ch ~192 Kbps - MVO [ГТРК Россия]
Язык : Russian
ServiceKind/String : Complete Main
Default : Нет
Forced : Нет

Аудио #3
Идентификатор : 4
Формат : AC-3
Формат/Информация : Audio Coding 3
Идентификатор кодека : A_AC3
Продолжительность : 1 ч. 21 м.
Вид битрейта : Постоянный
Битрейт : 192 Кбит/сек
Каналы : 2 канала
Расположение каналов : Front: L R
Частота : 48,0 КГц
Частота кадров : 31,250 кадров/сек (1536 SPF)
Битовая глубина : 16 бит
Метод сжатия : С потерями
Размер потока : 112 Мбайт (5%)
Заголовок : 48 KHz, AC3, 2 ch ~192 Kbps - AVO [Гаврилов]
Язык : Russian
ServiceKind/String : Complete Main
Default : Нет
Forced : Нет

Аудио #4
Идентификатор : 5
Формат : AC-3
Формат/Информация : Audio Coding 3
Идентификатор кодека : A_AC3
Продолжительность : 1 ч. 20 м.
Вид битрейта : Постоянный
Битрейт : 192 Кбит/сек
Каналы : 2 канала
Расположение каналов : Front: L R
Частота : 48,0 КГц
Частота кадров : 31,250 кадров/сек (1536 SPF)
Битовая глубина : 16 бит
Метод сжатия : С потерями
Задержка видео : -5 мс.
Размер потока : 111 Мбайт (5%)
Заголовок : 48 KHz, AC3, 2 ch ~192 Kbps - AVO [Горчаков]
Язык : Russian
ServiceKind/String : Complete Main
Default : Нет
Forced : Нет

Аудио #5
Идентификатор : 6
Формат : AC-3
Формат/Информация : Audio Coding 3
Идентификатор кодека : A_AC3
Продолжительность : 1 ч. 21 м.
Вид битрейта : Постоянный
Битрейт : 448 Кбит/сек
Каналы : 6 каналов
Расположение каналов : Front: L C R, Side: L R, LFE
Частота : 48,0 КГц
Частота кадров : 31,250 кадров/сек (1536 SPF)
Битовая глубина : 16 бит
Метод сжатия : С потерями
Размер потока : 261 Мбайт (12%)
Заголовок : 48 KHz, AC3, 6 ch ~448 Kbps - Original
Язык : English
ServiceKind/String : Complete Main
Default : Нет
Forced : Нет

Текст #1
Идентификатор : 7
Формат : ASS
Идентификатор кодека : S_TEXT/ASS
Идентификатор кодека/Информация : Advanced Sub Station Alpha
Продолжительность : 1 ч. 20 м.
Битрейт : 84 бит/сек
ElementCount : 721
Метод сжатия : Без потерь
Размер потока : 49,7 Кбайт (0%)
Язык : Russian
Default : Нет
Forced : Нет

Текст #2
Идентификатор : 8
Формат : ASS
Идентификатор кодека : S_TEXT/ASS
Идентификатор кодека/Информация : Advanced Sub Station Alpha
Продолжительность : 1 ч. 18 м.
Битрейт : 79 бит/сек
ElementCount : 930
Метод сжатия : Без потерь
Размер потока : 45,7 Кбайт (0%)
Язык : English
Default : Нет
Forced : Нет

Меню
00:00:00.000 : :Chapter 1
00:10:09.040 : :Chapter 2
00:19:23.440 : :Chapter 3
00:28:50.200 : :Chapter 4
00:38:49.640 : :Chapter 5
00:47:59.080 : :Chapter 6
00:57:49.920 : :Chapter 7
01:07:54.120 : :Chapter 8
01:17:35.240 : :Chapter 9



Зубастики 4 / Critters 4
Год выпуска: 1992

Жанр: Ужасы, фантастика, боевик, триллер, комедия

Страна: США

Режиссер: Руперт Харви

rating

В ролях: Дон Оппер, Пол Уиттхорн, Анджела Бассетт, Андерс Хоув , Эрик ДаРе, Брэд Дуриф, Терренс Манн

Сюжет фильма: В 1992 году в Канзасе были истреблены последние зубастики. Оставшиеся два яйца, в соответствии с законом о сохранении исчезающих видов, были помещены в капсулу-холодильник и отправлены в космос. Но, как это часто случается, она затерялась в бескрайних просторах Солнечной системы. 2045 год. На космический корабль с экспедицией землян попадает неопознанный летающий объект. Злодей капитан вскрывает его, и оттуда появляются маленькие обжоры, начав быстро размножаться. Космическому охотнику Чарли опять приходится вступать в дело…

Продолжительность: 01:30:38

Качество видео: WEB-DLRip AVC

Видео: кодек: MPEG-4 AVC, размер кадра: 1024x576, битрейт: 2100 Кбит/сек

Аудио #1: язык: Русский, перевод: профессиональный (многоголосый, закадровый) Союз-Видео, кодек: AC3, битрейт: 384 Кбит/сек

Аудио #2: язык: Русский, перевод: авторский (одноголосый, закадровый) Дохалов, кодек: AC3, битрейт: 192 Кбит/сек

Аудио #3: язык: Русский, перевод: авторский (одноголосый, закадровый) Горчаков, кодек: AC3, битрейт: 192 Кбит/сек

Аудио #4: язык: Русский, перевод: авторский (одноголосый, закадровый) Живов, кодек: AC3, битрейт: 192 Кбит/сек

Аудио #5: язык: Английский, кодек: AC3, битрейт: 384 Кбит/сек

Субтитры: Русские, английские
Видео
Идентификатор : 1
Формат : AVC
Формат/Информация : Advanced Video Codec
Профиль формата : High@L4.1
Настройки формата : CABAC / 11 Ref Frames
Параметр CABAC формата : Да
Параметр RefFrames формата : 11 кадров
Идентификатор кодека : V_MPEG4/ISO/AVC
Продолжительность : 1 ч. 30 м.
Битрейт : 2100 Кбит/сек
Ширина : 1024 пикселя
Высота : 576 пикселей
Соотношение сторон : 16:9
Режим частоты кадров : Постоянный
Частота кадров : 25,000 кадров/сек
Цветовое пространство : YUV
Субдискретизация насыщенности : 4:2:0
Битовая глубина : 8 бит
Тип развёртки : Прогрессивная
Бит/(Пиксели*Кадры) : 0.142
Размер потока : 1,33 Гбайт (61%)
Заголовок : MPEG-4, 1024x576, 25.000 fps ~2100 kbps
Библиотека кодирования : x264 core 142 r2479 dd79a61
Настройки программы : cabac=1 / ref=11 / deblock=1:-3:-3 / analyse=0x3:0x113 / me=umh / subme=10 / psy=1 / psy_rd=1.00:0.15 / mixed_ref=1 / me_range=24 / chroma_me=1 / trellis=2 / 8x8dct=1 / cqm=0 / deadzone=21,11 / fast_pskip=0 / chroma_qp_offset=-3 / threads=3 / lookahead_threads=1 / sliced_threads=0 / nr=0 / decimate=1 / interlaced=0 / bluray_compat=0 / constrained_intra=0 / bframes=16 / b_pyramid=2 / b_adapt=2 / b_bias=0 / direct=3 / weightb=1 / open_gop=0 / weightp=2 / keyint=250 / keyint_min=25 / scenecut=40 / intra_refresh=0 / rc_lookahead=50 / rc=2pass / mbtree=0 / bitrate=2100 / ratetol=1.0 / qcomp=0.60 / qpmin=0 / qpmax=69 / qpstep=4 / cplxblur=20.0 / qblur=0.5 / vbv_maxrate=62500 / vbv_bufsize=78125 / nal_hrd=none / filler=0 / ip_ratio=1.40 / pb_ratio=1.30 / aq=1:1.00
Язык : English
Default : Да
Forced : Нет
Цветовой диапазон : Limited
Основные цвета : BT.709
Характеристики трансфера : BT.709
Коэффициенты матрицы : BT.709

Аудио #1
Идентификатор : 2
Формат : AC-3
Формат/Информация : Audio Coding 3
Идентификатор кодека : A_AC3
Продолжительность : 1 ч. 30 м.
Вид битрейта : Постоянный
Битрейт : 384 Кбит/сек
Каналы : 6 каналов
Расположение каналов : Front: L C R, Side: L R, LFE
Частота : 48,0 КГц
Частота кадров : 31,250 кадров/сек (1536 SPF)
Битовая глубина : 16 бит
Метод сжатия : С потерями
Задержка видео : -5 мс.
Размер потока : 249 Мбайт (11%)
Заголовок : 48 KHz, AC3, 6 ch ~384 Kbps - DVO [Инис|Союз-Видео]
Язык : Russian
ServiceKind/String : Complete Main
Default : Да
Forced : Нет

Аудио #2
Идентификатор : 3
Формат : AC-3
Формат/Информация : Audio Coding 3
Идентификатор кодека : A_AC3
Продолжительность : 1 ч. 30 м.
Вид битрейта : Постоянный
Битрейт : 192 Кбит/сек
Каналы : 2 канала
Расположение каналов : Front: L R
Частота : 48,0 КГц
Частота кадров : 31,250 кадров/сек (1536 SPF)
Битовая глубина : 16 бит
Метод сжатия : С потерями
Размер потока : 125 Мбайт (6%)
Заголовок : 48 KHz, AC3, 2 ch ~192 Kbps - AVO [Дохалов]
Язык : Russian
ServiceKind/String : Complete Main
Default : Нет
Forced : Нет

Аудио #3
Идентификатор : 4
Формат : AC-3
Формат/Информация : Audio Coding 3
Идентификатор кодека : A_AC3
Продолжительность : 1 ч. 30 м.
Вид битрейта : Постоянный
Битрейт : 192 Кбит/сек
Каналы : 2 канала
Расположение каналов : Front: L R
Частота : 48,0 КГц
Частота кадров : 31,250 кадров/сек (1536 SPF)
Битовая глубина : 16 бит
Метод сжатия : С потерями
Размер потока : 125 Мбайт (6%)
Заголовок : 48 KHz, AC3, 2 ch ~192 Kbps - AVO [Горчаков]
Язык : Russian
ServiceKind/String : Complete Main
Default : Нет
Forced : Нет

Аудио #4
Идентификатор : 5
Формат : AC-3
Формат/Информация : Audio Coding 3
Идентификатор кодека : A_AC3
Продолжительность : 1 ч. 30 м.
Вид битрейта : Постоянный
Битрейт : 192 Кбит/сек
Каналы : 2 канала
Расположение каналов : Front: L R
Частота : 48,0 КГц
Частота кадров : 31,250 кадров/сек (1536 SPF)
Битовая глубина : 16 бит
Метод сжатия : С потерями
Размер потока : 125 Мбайт (6%)
Заголовок : 48 KHz, AC3, 2 ch ~192 Kbps - AVO [Живов]
Язык : Russian
ServiceKind/String : Complete Main
Default : Нет
Forced : Нет

Аудио #5
Идентификатор : 6
Формат : AC-3
Формат/Информация : Audio Coding 3
Идентификатор кодека : A_AC3
Продолжительность : 1 ч. 30 м.
Вид битрейта : Постоянный
Битрейт : 384 Кбит/сек
Каналы : 6 каналов
Расположение каналов : Front: L C R, Side: L R, LFE
Частота : 48,0 КГц
Частота кадров : 31,250 кадров/сек (1536 SPF)
Битовая глубина : 16 бит
Метод сжатия : С потерями
Задержка видео : -5 мс.
Размер потока : 249 Мбайт (11%)
Заголовок : 48 KHz, AC3, 6 ch ~384 Kbps - Original
Язык : English
ServiceKind/String : Complete Main
Default : Нет
Forced : Нет

Текст #1
Идентификатор : 7
Формат : ASS
Идентификатор кодека : S_TEXT/ASS
Идентификатор кодека/Информация : Advanced Sub Station Alpha
Продолжительность : 1 ч. 26 м.
Битрейт : 79 бит/сек
ElementCount : 706
Метод сжатия : Без потерь
Размер потока : 49,9 Кбайт (0%)
Язык : Russian
Default : Нет
Forced : Нет

Текст #2
Идентификатор : 8
Формат : ASS
Идентификатор кодека : S_TEXT/ASS
Идентификатор кодека/Информация : Advanced Sub Station Alpha
Продолжительность : 1 ч. 24 м.
Битрейт : 75 бит/сек
ElementCount : 968
Метод сжатия : Без потерь
Размер потока : 46,5 Кбайт (0%)
Язык : English
Default : Нет
Forced : Нет

Меню
00:00:00.000 : :Chapter 1
00:08:09.120 : :Chapter 2
00:12:34.080 : :Chapter 3
00:19:50.080 : :Chapter 4
00:24:55.120 : :Chapter 5
00:26:49.080 : :Chapter 6
00:29:34.120 : :Chapter 7
00:33:35.120 : :Chapter 8
00:37:24.080 : :Chapter 9
00:41:41.120 : :Chapter 10
00:45:15.120 : :Chapter 11
00:48:37.120 : :Chapter 12
00:50:37.080 : :Chapter 13
00:53:44.120 : :Chapter 14
00:59:49.120 : :Chapter 15
01:02:45.120 : :Chapter 16
01:07:12.080 : :Chapter 17
01:11:59.080 : :Chapter 18
01:24:01.120 : :Chapter 19
01:26:59.120 : :Chapter 20



pb.wtf



Скачать Зубастики : Антология через торрент http://pic1.kartinco.top/images/11/6hg1n.jpg Скачать фильм Зубастики : Антология через торрент бесплантно в хорошем качестве В ролях: Ди Уоллес-Стоун, Билли Грин Буш, Скотт Граймз, Надин Ван дер Велде, Дон Кит Оппер, Билли Зейн, Итэн Филлипс, Терренс Манн, Джереми ... 10 10 7
Info! Золотая раздача, скачанное не засчитывается.
Торрент: Зарегистрирован [2018-09-06 20:37] · скачан: 63 раз
Статус: √ проверено
Размер: 8.72 GB
Как cкачать? Как скачать Зубастики : Антология через торрент | qTorrent

28-11-2019 20:33  

Отключить всю рекламу на сайте

06-09-2018 21:40 Зубастики : Антология Скачать торрент  

Андрей1968, Круто. Спасибо ! pb.wtf



06-09-2018 21:52 Зубастики : Антология Скачать торрент  

Жанр: Комедия, фантастика. Спасибо.pb.wtf



07-09-2018 05:33 Зубастики : Антология Скачать торрент  

    Дорогой пользователь! Огромная просьба, поблагодарите релизера, оцените раздачу и оставьте свои комментарий, если Вы скачали Зубастики : Антология через торрент бесплатно! Внесите свою лепту в развитие PiratBit!
    Комментировать посты могут только пользователи прошедшие не сложную регистрацию
    Показать сообщения:    

    Зубастики : Антология через торрент
    Скачать бесплатно Зубастики : Антология
    Зубастики : Антология скачать торрент
    Зубастики : Антология смотреть онлайн
    Cкачать фильм Зубастики : Антология бесплатно
    Зубастики : Антология скачать торрент в хорошем качестве
    Зубастики : Антология смотреть онлайн бесплатно в хорошем качестве


    Вы не можете начинать темы
    Вы не можете отвечать на сообщения
    Вы не можете редактировать свои сообщения
    Вы не можете удалять свои сообщения
    Вы не можете голосовать в опросах
    Вы не можете прикреплять файлы к сообщениям
    Вы можете скачивать файлы