Ссылка на приватное зеркало нашего сайта всего за 1$. Внимание количество ограничено!!!

2 сезон

iTunes

1 сезон

1

2 сезон

2 сезон

iTunes

1 сезон

RePack

30

Новинка

ВАЖНО

ИГРА 18+

pack

RePack

MK11
pack

Забери бонус

RePack

jed

!!Акция!!

Alien_Rage

RePack

fifa19

RePack

Assassins Creed: Odyssey

RePack

NEED FOR SPEED™ PAYBACK

4 сезон

9 сезон

Бесстыжие 9 сезон

Все сериалы

все сериалы на PB.wtf

RePack

FAR CRY 5
  

Судная ночь / The Purge / Сезон: 1 / Серии: 1-10 из 10 (Энтони Хемингуэй, Нина Лопес-Коррадо, Майкл Нанкин) [2018, Ужасы, фантастика, боевик, триллер, WEB-DL 720p] MVO [Jaskier] pb.wtf

Судная ночь через торрент pb.wtf

Размер: 8.41 GB | Добавлен: 2 года назад | Торрент скачан:38 раз
Скачать  

07-09-2018 04:37 Судная ночь Скачать торрент  

Судная ночь / The Purge
Год выпуска: 2018
Страна: США
Жанр: Ужасы, фантастика, боевик, триллер
Продолжительность: ~ 01:00:00
Перевод: Профессиональный (многоголосый) | Jaskier
Субтитры: отсутствуют

Режиссер: Энтони Хемингуэй, Нина Лопес-Коррадо, Майкл Нанкин

rating

В ролях:

Гэбриел Чаварриа, Джессика Гарза, Ханна Эмили Андерсон, Колин Вуделл, Рид Даймонд, Лили Симмонс, Паулина Гальвес, Эллисон Кинг, Аманда Уоррен, Андреа Франкл

Описание:

Предыстория самой первой Судной ночи – ежегодной 12-часовой «чистки», когда перестают действовать законы. Как Америка дошла до того, чтобы утвердить ночь массовых расправ и свирепой вседозволенности?

Качество: WEB-DL 720p
Формат: MKV

Видео: X264, ~ 2400 kbps, 1280x720 (16:9), 23.976 fps
Аудио#1: AC3, 48,0 КГц, 6 ch, 384 kbps - Rus
Аудио#2: AC3, 48,0 КГц, 6 ch, 384 kbps - Eng
скриншот  скриншот  скриншот  

Общее
Уникальный идентификатор : 244693664574773038409016612060201939392 (0xB816491BD015D99CBBE72BF97AD6F1C0)
Полное имя : E:\The.Purge. Season 1 (WEB-DL l 720p l JASKiER)\The.Purge.S01E01.720p. JASKiER.mkv
Формат : Matroska
Версия формата : Version 2
Размер файла : 1,14 Гбайт
Продолжительность : 50 м. 53 с.
Режим общего битрейта : Переменный
Общий поток : 3197 Кбит/сек
Дата кодирования : UTC 2018-09-06 21:21:11
Программа кодирования : mkvmerge v7.8.0 ('River Man') 32bit built on Apr 3 2015 12:11:22
Библиотека кодирования : libebml v1.3.1 + libmatroska v1.4.2

Видео
Идентификатор : 1
Формат : AVC
Формат/Информация : Advanced Video Codec
Профиль формата : High@L3.1
Настройки формата : CABAC / 5 Ref Frames
Параметр CABAC формата : Да
Параметр RefFrames формата : 5 кадров
Идентификатор кодека : V_MPEG4/ISO/AVC
Продолжительность : 50 м. 53 с.
Вид битрейта : Переменный
Битрейт : 2366 Кбит/сек
Максимальный битрейт : 4500 Кбит/сек
Ширина : 1280 пикселей
Высота : 720 пикселей
Соотношение сторон : 16:9
Режим частоты кадров : Постоянный
Частота кадров : 23,976 (24000/1001) кадра/сек
Цветовое пространство : YUV
Субдискретизация насыщенности : 4:2:0
Битовая глубина : 8 бит
Тип развёртки : Прогрессивная
Бит/(Пиксели*Кадры) : 0.107
Размер потока : 861 Мбайт (74%)
Default : Да
Forced : Нет
Цветовой диапазон : Limited
Основные цвета : BT.709
Характеристики трансфера : BT.709
Коэффициенты матрицы : BT.709

Аудио #1
Идентификатор : 2
Формат : AC-3
Формат/Информация : Audio Coding 3
Идентификатор кодека : A_AC3
Продолжительность : 50 м. 53 с.
Вид битрейта : Постоянный
Битрейт : 384 Кбит/сек
Каналы : 6 каналов
Расположение каналов : Front: L C R, Side: L R, LFE
Частота : 48,0 КГц
Частота кадров : 31,250 кадров/сек (1536 SPF)
Битовая глубина : 16 бит
Метод сжатия : С потерями
Размер потока : 140 Мбайт (12%)
Заголовок : Jaskier
Язык : Russian
ServiceKind/String : Complete Main
Default : Да
Forced : Нет

Аудио #2
Идентификатор : 3
Формат : AC-3
Формат/Информация : Audio Coding 3
Идентификатор кодека : A_AC3
Продолжительность : 50 м. 53 с.
Вид битрейта : Постоянный
Битрейт : 384 Кбит/сек
Каналы : 6 каналов
Расположение каналов : Front: L C R, Side: L R, LFE
Частота : 48,0 КГц
Частота кадров : 31,250 кадров/сек (1536 SPF)
Битовая глубина : 16 бит
Метод сжатия : С потерями
Размер потока : 140 Мбайт (12%)
Язык : English
ServiceKind/String : Complete Main
Default : Нет
Forced : Нет

Внимание! Раздача ведётся путём добавления новых серий; при каждом добавлении создаётся новый торрент. Чтобы начать докачку новой серии, пользователям необходимо сделать следующее:
Остановить скачивание.
Удалить старый торрент у себя из клиента (старые серии удалять не надо).
Скачать новый торрент и запустить его у себя в клиенте вместо старого, при этом указать клиенту путь в старую папку куда и должно происходить скачивание новых серий.

Ваш клиент при этом должен произвести хеширование (проверку) старой папки (если не производит сам - помогите ему сделать это), и будет докачивать только те серии которых у вас ещё нет. Старые серии при этом не удаляются, а продолжают раздаваться!
Eсли вы уже удалили старые серии, то предотвратить повторную закачку старых серий можно, отжав галочку в соответсвующих местах при запуске нового торрента. По возможности, желательно не удалять старые серии как можно дольше чтобы релизёр не столько продолжал раздавать старые серии, а смог сконцентрироваться на новых.
pb.wtf



Скачать Судная ночь через торрент http://i103.fastpic.ru/big/2018/0907/2d/a8222bf4c286d3cd4ec220aad1a49f2d.png Скачать фильм Судная ночь через торрент бесплантно в хорошем качестве Описание: Предыстория самой первой Судной ночи – ежегодной 12-часовой «чистки», когда перестают действовать законы. Как Америка дошла до ... 10 10 6
Торрент: Зарегистрирован [2018-11-09 14:30] · скачан: 38 раз
Статус: √ проверено
Размер: 8.41 GB
Как cкачать? Как скачать Судная ночь через торрент | qTorrent

% Раздел Тема Автор DL S | L
Зарубежные сериалы [ 27.69 GB ] Судная ночь / The Purge / Сезон 2 / Серии 1-10 из 10 [2019 WEB-DL 1080p] MVO [TVShows] bober100 Скачать
1 | 0
Зарубежные сериалы [ 7.01 GB ] Судная ночь / The Purge / Сезон: 2 / Серии: 1-10 из 10 [2019 WEB-DLRip] MVO [TVShows] bober100 Скачать
1 | 0
Зарубежные сериалы [ 28.03 GB ] Судная ночь / The Purge / Сезон: 2 / Серии: 1-10 из 10 [2019 WEB-DL 1080p] MVO [Пифагор] bober100 Скачать
1 | 0
Зарубежные сериалы [ 13.85 GB ] Судная ночь / The Purge / Сезон: 2 / Серии: 1-10 из 10 [2019 WEB-DL 720p] MVO [TVShows] bober100 Скачать
1 | 0
Зарубежные сериалы [ 1.17 GB ] Судная ночь / The Purge / Сезон 2 / Серии 1- из 10 [2019 WEB-DL 720p] MVO [AlexFilm] bober100 Скачать
1 | 0
Зарубежные сериалы [ 4.89 GB ] Судная ночь / The Purge / Сезон: 2 / Серии: 1-10 из 10 [2019 WEB-DLRip] MVO [Jaskier] bober100 Скачать
1 | 0
Зарубежные сериалы [ 27.07 GB ] Судная ночь / The Purge / Сезон: 2 / Серии: 1-10 из 10 [2019 WEB-DL 1080p] MVO [Jaskier] bober100 Скачать
1 | 0

28-11-2019 20:33  

Отключить всю рекламу на сайте

    Дорогой пользователь! Огромная просьба, поблагодарите релизера, оцените раздачу и оставьте свои комментарий, если Вы скачали Судная ночь через торрент бесплатно! Внесите свою лепту в развитие PiratBit!
    Комментировать посты могут только пользователи прошедшие не сложную регистрацию
    Показать сообщения:    

    Судная ночь через торрент
    Скачать бесплатно Судная ночь
    Судная ночь скачать торрент
    Судная ночь смотреть онлайн
    Cкачать фильм Судная ночь бесплатно
    Судная ночь скачать торрент в хорошем качестве
    Судная ночь смотреть онлайн бесплатно в хорошем качестве


    Вы не можете начинать темы
    Вы не можете отвечать на сообщения
    Вы не можете редактировать свои сообщения
    Вы не можете удалять свои сообщения
    Вы не можете голосовать в опросах
    Вы не можете прикреплять файлы к сообщениям
    Вы можете скачивать файлы