Ссылка на приватное зеркало нашего сайта всего за 1$. Внимание количество ограничено!!!

2 сезон

iTunes

1 сезон

1

2 сезон

2 сезон

iTunes

1 сезон

RePack

30

Ultimate

ВАЖНО

ИГРА 18+

pack

RePack

MK11
pack

Забери бонус

RePack

jed

!!Акция!!

Alien_Rage

RePack

fifa19

RePack

Assassins Creed: Odyssey

RePack

NEED FOR SPEED™ PAYBACK

4 сезон

9 сезон

Бесстыжие 9 сезон

Все сериалы

все сериалы на PB.wtf

RePack

FAR CRY 5
  

Майянцы / Майя МС / Mayans M.C. / Сезон: 1 / Серии: 1-10 из 10 (Норберто Барба, Курт Саттер, Гай Ферленд) [2018, Драма, Криминал, WEB-DL 720p] MVO [Jaskier] pb.wtf

Майянцы через торрент pb.wtf

Размер: 11.89 GB | Добавлен: 2 года назад | Торрент скачан:16 раз
Скачать  

07-09-2018 04:50 Майянцы Скачать торрент  

Майянцы / Майя МС / Mayans M.C.
Год выпуска: 2018
Страна: США
Жанр: Драма, Криминал
Продолжительность: ~ 01:00:00 серия
Перевод: Профессиональный многоголосый | Jaskier [БЕЗ ЦЕНЗУРЫ]
Субтитры: отсутствуют

Режиссер: Норберто Барба, Курт Саттер, Гай Ферленд

rating

В ролях:

Эдвард Джеймс Олмос, Джон Ортиз, Клинт Юнг, Эрик Од, Рик Крамер, Рэймонд Крус, Дэнни Грюнберг, Дж. ЛаРоуз, Жаклин Обрадорс, Александра Баррето, Марко Моралес, Сизар Делеон, Пабло Рамос, Том Биллет, Артуро Дель Пуэрто, Майкл Ирби, Педро Лопез, Дэниэл Лухан, Эмилио Ривера, Брайант Ромо, Гари Краус, Эфрат Дор, Джои Лучеро, Дэн Кули, Ганс Марреро, Сара Болгер, Винсент Варгас, Клэйтон Карденас

Описание:

События сериала начинаются через два с половиной года после финального эпизода сериала «Сыны анархии». Главный герой — Эзекьель Рейес, кандидат в члены клуба «маянцев» на границе Калифорнии и Мексики, который хочет отомстить наркокартелю

Качество: WEB-DL 720p
Формат: MKV

Видео: X264, ~ 2300 kbps, 1280x720 (16:9), 23.976 fps
Аудио#1: AC3, 48,0 КГц, 6 ch, 384 kbps - RUS
Аудио#2: AC3, 48,0 КГц, 6 ch, 384 kbps - ENG
скриншот  скриншот  скриншот  

Общее
Уникальный идентификатор : 248001972958981414453619668345731757622 (0xBA93714E2909A6DA9F15C97429993636)
Полное имя : E:\Mayans.M.C Season 1 (WEB-DL l 720p l JASKiER)\Mayans.M.C.S01E01.720p. JASKiER.mkv
Формат : Matroska
Версия формата : Version 2
Размер файла : 1,49 Гбайт
Продолжительность : 1 ч. 10 м.
Общий поток : 3043 Кбит/сек
Дата кодирования : UTC 2018-09-06 21:19:28
Программа кодирования : mkvmerge v7.8.0 ('River Man') 32bit built on Apr 3 2015 12:11:22
Библиотека кодирования : libebml v1.3.1 + libmatroska v1.4.2

Видео
Идентификатор : 1
Формат : AVC
Формат/Информация : Advanced Video Codec
Профиль формата : High@L3.1
Настройки формата : CABAC / 5 Ref Frames
Параметр CABAC формата : Да
Параметр RefFrames формата : 5 кадров
Идентификатор кодека : V_MPEG4/ISO/AVC
Продолжительность : 1 ч. 10 м.
Битрейт : 2214 Кбит/сек
Ширина : 1280 пикселей
Высота : 720 пикселей
Соотношение сторон : 16:9
Режим частоты кадров : Постоянный
Частота кадров : 23,976 (24000/1001) кадра/сек
Цветовое пространство : YUV
Субдискретизация насыщенности : 4:2:0
Битовая глубина : 8 бит
Тип развёртки : Прогрессивная
Бит/(Пиксели*Кадры) : 0.100
Размер потока : 1,09 Гбайт (73%)
Default : Да
Forced : Нет
Цветовой диапазон : Limited
Основные цвета : BT.709
Характеристики трансфера : BT.709
Коэффициенты матрицы : BT.709

Аудио #1
Идентификатор : 2
Формат : AC-3
Формат/Информация : Audio Coding 3
Идентификатор кодека : A_AC3
Продолжительность : 1 ч. 10 м.
Вид битрейта : Постоянный
Битрейт : 384 Кбит/сек
Каналы : 6 каналов
Расположение каналов : Front: L C R, Side: L R, LFE
Частота : 48,0 КГц
Частота кадров : 31,250 кадров/сек (1536 SPF)
Битовая глубина : 16 бит
Метод сжатия : С потерями
Размер потока : 193 Мбайт (13%)
Заголовок : Jaskier
Язык : Russian
ServiceKind/String : Complete Main
Default : Да
Forced : Нет

Аудио #2
Идентификатор : 3
Формат : AC-3
Формат/Информация : Audio Coding 3
Идентификатор кодека : A_AC3
Продолжительность : 1 ч. 10 м.
Вид битрейта : Постоянный
Битрейт : 384 Кбит/сек
Каналы : 6 каналов
Расположение каналов : Front: L C R, Side: L R, LFE
Частота : 48,0 КГц
Частота кадров : 31,250 кадров/сек (1536 SPF)
Битовая глубина : 16 бит
Метод сжатия : С потерями
Размер потока : 193 Мбайт (13%)
Язык : English
ServiceKind/String : Complete Main
Default : Нет
Forced : Нет

Когда раздача ведётся путём добавления новых серий, при каждом добавлении создётся новый торрент. Чтобы начать докачку новой серии, пользователям необходимо сделать следующее:
(1) остановить скачивание,
(2) удалить старый торрент у себя из клиента (старые серии удалять не надо),
(3) скачать новый торрент и запустить его у себя в клиенте вместо старого, при этом указать клиенту путь в старую папку, куда и должно происходить скачивание новых серий.
Ваш клиент при этом должен произвести хеширование (проверку) старой папки (если не производит сам - помогите ему сделать это), и будет докачивать только те серии, которых у вас ещё нет. Старые серии при этом не удаляются, а продолжают раздаваться!
Eсли вы уже удалили старые серии, то предотвратить повторную закачку старых серий можно, отжав галочку в соответствующих местах при запуске нового торрента. По возможности, желательно не удалять старые серии как можно дольше, чтобы релизер не столько продолжал раздавать старые серии, а смог сконцентрироваться на новых.
pb.wtf



Скачать Майянцы через торрент http://i103.fastpic.ru/big/2018/0907/80/113f80246c9a14e8f1331b47e260f880.png Скачать фильм Майянцы через торрент бесплантно в хорошем качестве Описание: События сериала начинаются через два с половиной года после финального эпизода сериала «Сыны анархии». Главный герой — Эзекьель ... 8.2 10 5
Торрент: Зарегистрирован [2018-11-16 09:21] · скачан: 16 раз
Статус: √ проверено
Размер: 11.89 GB
Как cкачать? Как скачать Майянцы через торрент | qTorrent

% Раздел Тема Автор DL S | L
Зарубежные сериалы [ 8.88 GB ] Майянцы / Майя МС / Mayans M.C. / Сезон: 2 / Серии: 1-10 из 10 [2019 WEBRip] MVO [TVShows] bober100 Скачать
1 | 0
Зарубежные сериалы [ 7.39 GB ] Майя МС / Майянцы / Mayans M.C. / Сезон: 2 / Серии: 1-10 из 10 [2019 WEB-DLRip] MVO [LostFilm] bober100 Скачать
1 | 0
Зарубежные сериалы [ 21.95 GB ] Майя МС / Майянцы / Mayans M.C. / Сезон: 2 / Серия: 1-10 из 10 [2019 WEB-DL 720p] MVO [TVShows] bober100 Скачать
1 | 0
Зарубежные сериалы [ 47.21 GB ] Майя МС / Майянцы / Mayans M.C. / Сезон: 2 / Серия: 1-10 из 10 [2019 WEB-DL 1080p] MVO [TVShows] bober100 Скачать
1 | 0
Зарубежные сериалы [ 25.02 GB ] Майя МС / Майянцы / Mayans M.C. / Сезон: 2 / Серии: 1-10 из 10 [2019 WEB-DL 720p] MVO [LostFilm] bober100 Скачать
1 | 0
Зарубежные сериалы [ 41.88 GB ] Майя МС / Майянцы / Mayans M.C. / Сезон: 2 / Серия: 1-10 из 10 [2019 WEB-DL 1080p] MVO [LostFilm] bober100 Скачать
2 | 0
Зарубежные сериалы [ 9.83 GB ] Майянцы / Майя МС / Mayans M.C. / Сезон: 1 / Серии: 1-10 из 10 [2018 WEB-DLRip] MVO [TVShows] bober100 Скачать
1 | 0

28-11-2019 20:33  

Отключить всю рекламу на сайте

    Дорогой пользователь! Огромная просьба, поблагодарите релизера, оцените раздачу и оставьте свои комментарий, если Вы скачали Майянцы через торрент бесплатно! Внесите свою лепту в развитие PiratBit!
    Комментировать посты могут только пользователи прошедшие не сложную регистрацию
    Показать сообщения:    

    Майянцы через торрент
    Скачать бесплатно Майянцы
    Майянцы скачать торрент
    Майянцы смотреть онлайн
    Cкачать фильм Майянцы бесплатно
    Майянцы скачать торрент в хорошем качестве
    Майянцы смотреть онлайн бесплатно в хорошем качестве


    Вы не можете начинать темы
    Вы не можете отвечать на сообщения
    Вы не можете редактировать свои сообщения
    Вы не можете удалять свои сообщения
    Вы не можете голосовать в опросах
    Вы не можете прикреплять файлы к сообщениям
    Вы можете скачивать файлы