Ссылка на приватное зеркало всего за 1$. Внимание количество ограничено!!!

OK

1+1

iTunes

мы

OK

1

WEB-DLRip

Джокер

Пифагор

Ведьмак / The Witcher сериал

Лицензия

ПШазам

ОК

Оно 2

iTunes

30
pack

Вам бонус

ВАЖНО

!!Акция!!

Alien_RageХит недели

RePack

Resident Evil 21

ИГРА 18+

pack

RePack

jed

!!Акция!!

Alien_Rage

RePack

fifa19

RePack

Assassins Creed: Odyssey

RePack

NEED FOR SPEED™ PAYBACK

4 сезон

9 сезон

Бесстыжие 9 сезон

Все сериалы

все сериалы на PB.wtf

RePack

FAR CRY 5
  

Гордая Мэри / Proud Mary (Бабак Наджафи) [2018, боевик, триллер, BDRip 1080p] MVO [Лицензия BD EUR] pb.wtf

Гордая Мэри через торрент pb.wtf

Размер: 7.19 GB | Добавлен: 1 год 4 мес. назад | Торрент скачан:87 раз
Скачать  

07-09-2018 07:39 Гордая Мэри Скачать торрент  

Гордая Мэри / Proud Mary
Год выпуска: 2018
Страна: США
Жанр: боевик, триллер
Продолжительность: 01:29:02
Перевод: Профессиональный (многоголосый, закадровый) | Лицензия BD EUR
Субтитры: Русские, английские

Режиссер: Бабак Наджафи

rating

В ролях:

Тараджи П. Хенсон, Билли Браун, Нил МакДонаф, Маргарет Эйвери, Ксандер Беркли, Раде Шербеджия, Эрик Ларей Харви, Дэнни Гловер

Описание:

Женщина-киллер Мэри, работающая на бостонскую мафию, убивает наркоторговца, оставляя сиротой его малолетнего сына. Неожиданные материнские чувства побуждают Мэри позаботиться о судьбе мальчика. Она пытается начать новую жизнь – для него и для себя.

Качество: BDRip 1080p
Формат: MKV

Видео: MPEG-4 AVC, 10300 Кбит/с, 1920x802, 23.976 кадр/с
Аудио#1: Русский (AC3, 6 ch, 640 Кбит/с)
Аудио#2: английский (DTS, 6 ch, 1510 Кбит/с)
скриншот  скриншот  скриншот  скриншот  скриншот  

General
Unique ID : 50978213211552676631290320465440631138 (0x265A0BF6BAD6FDC266F9040FEB996962)
Complete name : F:\Видосики\Proud.Mary.2018.bdriP.108Op.werecut.PROD.mkv
Format : Matroska
Format version : Version 4 / Version 2
File size : 7.19 GiB
Duration : 1 h 29 min
Overall bit rate : 11.6 Mb/s
Movie name : Proud Mary 2018 OT werecut PROD.
Encoded date : UTC 2018-09-07 00:22:29
Writing application : mkvmerge v24.0.0 ('Beyond The Pale') 64-bit
Writing library : libebml v1.3.6 + libmatroska v1.4.9

Video
ID : 1
Format : AVC
Format/Info : Advanced Video Codec
Format profile : High@L4.1
Format settings : CABAC / 5 Ref Frames
Format settings, CABAC : Yes
Format settings, ReFrames : 5 frames
Codec ID : V_MPEG4/ISO/AVC
Duration : 1 h 29 min
Bit rate : 10.3 Mb/s
Width : 1 920 pixels
Height : 802 pixels
Display aspect ratio : 2.40:1
Frame rate mode : Constant
Frame rate : 23.976 (24000/1001) FPS
Color space : YUV
Chroma subsampling : 4:2:0
Bit depth : 8 bits
Scan type : Progressive
Bits/(Pixel*Frame) : 0.278
Stream size : 6.39 GiB (89%)
Writing library : x264 core 152 r2851 ba24899
Encoding settings : cabac=1 / ref=5 / deblock=1:-3:-3 / analyse=0x3:0x133 / me=umh / subme=10 / psy=1 / psy_rd=1.00:0.00 / mixed_ref=1 / me_range=32 / chroma_me=1 / trellis=2 / 8x8dct=1 / cqm=0 / deadzone=21,11 / fast_pskip=0 / chroma_qp_offset=-2 / threads=6 / lookahead_threads=1 / sliced_threads=0 / nr=0 / decimate=0 / interlaced=0 / bluray_compat=0 / constrained_intra=0 / bframes=7 / b_pyramid=2 / b_adapt=2 / b_bias=0 / direct=3 / weightb=1 / open_gop=0 / weightp=2 / keyint=250 / keyint_min=23 / scenecut=40 / intra_refresh=0 / rc=crf / mbtree=0 / crf=15.5 / qcomp=0.60 / qpmin=0 / qpmax=69 / qpstep=4 / ip_ratio=1.20 / pb_ratio=1.10 / aq=3:0.80
Language : English
Default : Yes
Forced : No

Audio #1
ID : 2
Format : AC-3
Format/Info : Audio Coding 3
Commercial name : Dolby Digital
Codec ID : A_AC3
Duration : 1 h 29 min
Bit rate mode : Constant
Bit rate : 640 kb/s
Channel(s) : 6 channels
Channel layout : L R C LFE Ls Rs
Sampling rate : 48.0 kHz
Frame rate : 31.250 FPS (1536 SPF)
Bit depth : 16 bits
Compression mode : Lossy
Stream size : 408 MiB (6%)
Language : Russian
Service kind : Complete Main
Default : Yes
Forced : Yes

Audio #2
ID : 3
Format : AC-3
Format/Info : Audio Coding 3
Commercial name : Dolby Digital
Codec ID : A_AC3
Duration : 1 h 29 min
Bit rate mode : Constant
Bit rate : 640 kb/s
Channel(s) : 6 channels
Channel layout : L R C LFE Ls Rs
Sampling rate : 48.0 kHz
Frame rate : 31.250 FPS (1536 SPF)
Bit depth : 16 bits
Compression mode : Lossy
Stream size : 408 MiB (6%)
Language : English
Service kind : Complete Main
Default : No
Forced : No

Text #1
ID : 4
Format : UTF-8
Codec ID : S_TEXT/UTF8
Codec ID/Info : UTF-8 Plain Text
Duration : 1 h 28 min
Bit rate : 56 b/s
Count of elements : 909
Stream size : 36.4 KiB (0%)
Language : Russian
Default : No
Forced : No

Text #2
ID : 5
Format : UTF-8
Codec ID : S_TEXT/UTF8
Codec ID/Info : UTF-8 Plain Text
Duration : 1 h 21 min
Bit rate : 44 b/s
Count of elements : 903
Stream size : 26.9 KiB (0%)
Language : English
Default : No
Forced : No

Menu
00:00:00.000 : en:00:00:00.000
00:03:22.661 : en:00:03:22.661
00:09:20.226 : en:00:09:20.226
00:15:58.374 : en:00:15:58.374
00:22:10.246 : en:00:22:10.246
00:28:13.734 : en:00:28:13.734
00:33:54.199 : en:00:33:54.199
00:37:56.357 : en:00:37:56.357
00:45:15.254 : en:00:45:15.254
00:50:40.246 : en:00:50:40.246
00:55:58.188 : en:00:55:58.188
00:59:59.262 : en:00:59:59.262
01:05:13.118 : en:01:05:13.118
01:10:28.724 : en:01:10:28.724
01:15:46.542 : en:01:15:46.542
01:20:09.346 : en:01:20:09.346

pb.wtf



Скачать Гордая Мэри через торрент http://pic1.kartinco.top/images/11/cqhwn.jpg Скачать фильм Гордая Мэри через торрент бесплантно в хорошем качестве Описание: Женщина-киллер Мэри, работающая на бостонскую мафию, убивает наркоторговца, оставляя сиротой его малолетнего сына. Неожиданные ... 10 10 4
Торрент: Зарегистрирован [2018-09-07 07:39] · скачан: 87 раз
Статус: √ проверено
Размер: 7.19 GB
Как cкачать? Как скачать Гордая Мэри через торрент | qTorrent

% Раздел Тема Автор DL S | L
Фильмы (Blu-ray, BD-Remux, HDDVD) [ 18.45 GB ] Гордая Мэри / Proud Mary [2018 BD Remux 1080p] 2xMVO [HDrezka Studio BD EUR] bober100 Скачать
1 | 0
Фильмы 2018 [DVDrip, WEB-DLRip, HDrip] (DUB, MVO) [ 746 MB ] Гордая Мэри / Proud Mary [2018 BDRip] MVO [ BD EUR] bober100 Скачать
1 | 0
Фильмы [HD 720p, 1080p] (Хороший звук DUB, MVO) [ 3.86 GB ] Гордая Мэри / Proud Mary [2018 BDRip 720p] MVO [ BD EUR] bober100 Скачать
2 | 0
Фильмы 2018 [DVDrip, WEB-DLRip, HDrip] (DUB, MVO) [ 1.44 GB ] Гордая Мэри / Proud Mary [2018 BDRip-AVC] MVO [] - ExKinoRay Enigma2010 Скачать
2 | 0
Ultra HD (UHD: 2K, 4K, 8K) — видео сверхвысокой чёткости [ 12.43 GB ] Гордая Мэри / Proud Mary [2018 UHD WEBRip 2160p] [HDR] 2xMVO [HDRezka Studio ] bober100 Скачать
1 | 0
Фильмы 2018 [DVDrip, WEB-DLRip, HDrip] (DUB, MVO) [ 1.11 GB ] Гордая Мэри / Proud Mary [2018 BDRip-AVC] многоголосый R.G.Generalfilm White Smoke Скачать
1 | 0
Фильмы 2018 [DVDrip, WEB-DLRip, HDrip] (DUB, MVO) [ 1.46 GB ] Гордая Мэри / Proud Mary [2018 BDRip] MVO - [] Twi7ter Скачать
1 | 0

28-11-2019 20:33  

Отключить всю рекламу на сайте

    Дорогой пользователь! Огромная просьба, поблагодарите релизера, оцените раздачу и оставьте свои комментарий, если Вы скачали Гордая Мэри через торрент бесплатно! Внесите свою лепту в развитие PiratBit!
    Комментировать посты могут только пользователи прошедшие не сложную регистрацию
    Показать сообщения:    

    Гордая Мэри через торрент
    Скачать бесплатно Гордая Мэри
    Гордая Мэри скачать торрент
    Гордая Мэри смотреть онлайн
    Cкачать фильм Гордая Мэри бесплатно
    Гордая Мэри скачать торрент в хорошем качестве
    Гордая Мэри смотреть онлайн бесплатно в хорошем качестве


    Вы не можете начинать темы
    Вы не можете отвечать на сообщения
    Вы не можете редактировать свои сообщения
    Вы не можете удалять свои сообщения
    Вы не можете голосовать в опросах
    Вы не можете прикреплять файлы к сообщениям
    Вы можете скачивать файлы