Ссылка на приватное зеркало нашего сайта всего за 1$. Внимание количество ограничено!!!

2 сезон

iTunes

1 сезон

1

iTunes

iTunes

iTunes

1 сезон

RePack

30

ИГРА 18+

pack

ВАЖНО

!!Акция!!

Alien_RageХит недели

RePack

MK11
pack

Забери бонус

RePack

jed

!!Акция!!

Alien_Rage

RePack

fifa19

RePack

Assassins Creed: Odyssey

RePack

NEED FOR SPEED™ PAYBACK

4 сезон

9 сезон

Бесстыжие 9 сезон

Все сериалы

все сериалы на PB.wtf

RePack

FAR CRY 5
  

Во все тяжкие / Breaking Bad / Сезон: 1-5 / Серии 1-62 (62) (Адам Бернштейн, Брайан Крэнстон) [2008-2013 г., драма, криминал, BDRip] [DVO] (Кубик в Кубе) pb.wtf

Во все тяжкие через торрент pb.wtf

Раздают: 3 [ 19 KB/s ]
Размер: 46.61 GB | Добавлен: 2 года 1 мес. назад | Торрент скачан:364 раза
Скачать  

07-09-2018 11:05 Во все тяжкие Скачать торрент  

Во Все Тяжкие / Breaking Bad
Год выхода: 2008-2013
Выпущено: США
Жанр: драма, криминал
Продолжительность: 62 x ~00:50:00
Перевод: Профессиональный (двухголосый закадровый)*Кубик в Кубе*
Субтитры: Русские (вшитые, на надписи и испанскую речь)

Режиссер: Адам Бернштейн, Брайан Крэнстон

В ролях: Брайан Крэнстон, Аарон Пол, Анна Ганн, Дин Норрис, Бетси Брандт, Эр Джей, Стивен Майкл Квезада, Джанкарло Эспосито, Боб Оденкирк, Джонатан Бэнкс и др.

О фильме:
Основная канва сюжета развивается вокруг школьного учителя химии Уолтера Уайта, который узнаёт, что он болен раком лёгких. Учитывая сложное финансовое состояние дел семьи, а также перспективы (жена Уолтера, Скайлер, беременна вторым ребёнком, а у сына детский паралич), Уолтер решается на аферу по приготовлению наркотика метамфетамина. Для этого привлекается бывший ученик Джесси Пинкман, когда-то исключенный из школы при активном содействии Уолтера, недавно потерявший партнёра по изготовлению наркотика, знающий «бизнес».



Файл:
Качество: BDRip
Формат: AVI
Видео: 720x400, 23.976 fps, XviD ~1600 kbps avg
Аудио: 48 kHz, AC3 Dolby Digital, 3/2 (L,C,R,l,r) + LFE ch, ~448.00 kbps avg
General
Complete name : E:\Breaking Bad (КвК)\Season 01\Breaking.Bad.s01e01.XviD.BDrip.DD5.1.kvk.[qqss44].avi
Format : AVI
Format/Info : Audio Video Interleave
File size : 938 MiB
Duration : 58 min 6 s
Overall bit rate : 2 257 kb/s
Writing application : VirtualDubMod 1.5.10.3 | www.virtualdub-fr.org || (build 2550/release)
Writing library : VirtualDubMod build 2550/release

Video
ID : 0
Format : MPEG-4 Visual
Format profile : Advanced Simple@L5
Format settings : BVOP2
Format settings, BVOP : 2
Format settings, QPel : No
Format settings, GMC : No warppoints
Format settings, Matrix : Default (MPEG)
Codec ID : XVID
Codec ID/Hint : XviD
Duration : 58 min 6 s
Bit rate : 1 711 kb/s
Width : 720 pixels
Height : 400 pixels
Display aspect ratio : 16:9
Frame rate : 23.976 (24000/1001) FPS
Color space : YUV
Chroma subsampling : 4:2:0
Bit depth : 8 bits
Scan type : Progressive
Compression mode : Lossy
Bits/(Pixel*Frame) : 0.248
Stream size : 711 MiB (76%)
Writing library : XviD 73

Audio
ID : 1
Format : AC-3
Format/Info : Audio Coding 3
Format settings, Endianness : Big
Codec ID : 2000
Duration : 58 min 6 s
Bit rate mode : Constant
Bit rate : 448 kb/s
Channel(s) : 6 channels
Channel positions : Front: L C R, Side: L R, LFE
Sampling rate : 48.0 kHz
Frame rate : 31.250 FPS (1536 SPF)
Bit depth : 16 bits
Compression mode : Lossy
Stream size : 186 MiB (20%)
Alignment : Split accross interleaves
Service kind : Complete Main
1 Сезон
1. Pilot / Пилот
2. Cat's in the Bag.../ Кот уже в мешке...
3. ...And the Bag's in the River / А мешок уже в реке
4. Cancer Man / Раковый больной
5. Gray Matter / Серое вещество
6. Crazy Handful of Nothin'/ Блеф на пустой руке
7. A No-Rough-Stuff-Type Deal / Тихий бизнес без суеты и напрягов

2 Сезон
01. Seven Thirty-Seven / Семьсот тридцать семь
02. Grilled / Попандос
03. Bit by a Dead Bee / Укус мертвой пчелы
04. Down / На дне
05. Breakage / Бой товара
06. Peekaboo / Ку-ку
07. Negro Y Azul / Синий мет на черном рынке
08. Better Call Saul / Надо звонить Солу!
09. 4 Days Out / 4 дня на природе
10. Over / Всё
11. Mandala / Мандала
12. Phoenix / Феникс
13. ABQ / АБК

3 Сезон
01. No Mas / Баста
02. Caballo sin nombre / Конь без клички
03. I.F.T. / Я.Т.Т.
04. Green Light / Зеленый цвет
05. Mas / По новой
06. Sunset / На закате
07. One Minute / Одна минута
08. I See You / Я тебя вижу
09. Kafkaesque / По-кафкиански
10. Fly / Муха
11. Abiquiu / Абикиу
12. Half Measures / Полумеры
13. Full Measure / Полная мера

4 Сезон
01. Box Cutter / Канцелярский нож
02. Thirty-Eight Snub / Тридцать восьмой, курносый
03. Open House / День открытых дверей
04. Bullet Points / Ключевые моменты
05. Shotgun / Боец
06. Cornered / В углу
07. Problem Dog / Проблемный пёс
08. Hermanos / Братья
09. Bug / Жучок
10. Salud
11. Crawl Space / Подпол
12. End Times / Конец света
13. Face Off / Кто кого

5 Сезон
01. Живи свободным или умри / Live Free or Die
02. Мадригал / Madrigal
03. Опасные условия / Hazard Pay
04. Пятьдесят один / Fifty-One
05. Мёртвый груз / Dead Freight
06. Выкуп / Buyout
07. Произнеси моё имя / Say My Name
08. Летящий над всем / Gliding Over All
09. Кровавые деньги / Blood Money
10. Зарытое / Buried
11. Признания / Confessions
12. Бешеный пёс / Rabid Dog
13. Тохаджили / To'hajiilee
14. Озимандия / Ozymandias
15. Гранитный штат / Granite State
16. Фелина / Felina
скриншот  скриншот  скриншот  
pb.wtf



Скачать Во все тяжкие через торрент http://i66.fastpic.ru/big/2015/0107/d1/f7baed94dfc87780856dccc84ea9bad1.png Скачать фильм Во все тяжкие через торрент бесплантно в хорошем качестве О фильме:Основная канва сюжета развивается вокруг школьного учителя химии Уолтера Уайта, который узнаёт, что он болен раком лёгких. ... 10 10 7
Торрент: Зарегистрирован [2018-09-07 11:05] · скачан: 364 раз
Статус: √ проверено
Размер: 46.61 GB
Как cкачать? Как скачать Во все тяжкие через торрент | qTorrent

% Раздел Тема Автор DL S | L
Во все тяжкие [ 65.18 GB ] Во все тяжкие / Breaking Bad / Сезон: 1-5 / Серии 1-62 из 62 [2008-2013 BDRip 1080p] killermax2013 Скачать
4 | 4
Во все тяжкие [ 253.45 GB ] Во все тяжкие / Breaking Bad / Сезон: 1-5 / Серии: 1-62 из 62 [2008-2013 BDRip 1080p] DVO [Кубик в Кубе] bober100 Скачать
2 | 0
Во все тяжкие [ 70.47 GB ] Во все тяжкие / Breaking Bad / сезон 1-5 [2008-2013 BDRip-AVC] MVO AARRSSEENN Скачать
2 | 2

28-11-2019 20:33  

Отключить всю рекламу на сайте

03-02-2019 20:01 Во все тяжкие Скачать торрент  

Топик был перенесен из форума Зарубежные сериалы в форум Во все тяжкие


bober100pb.wtf



    Дорогой пользователь! Огромная просьба, поблагодарите релизера, оцените раздачу и оставьте свои комментарий, если Вы скачали Во все тяжкие через торрент бесплатно! Внесите свою лепту в развитие PiratBit!
    Комментировать посты могут только пользователи прошедшие не сложную регистрацию
    Показать сообщения:    

    Во все тяжкие через торрент
    Скачать бесплатно Во все тяжкие
    Во все тяжкие скачать торрент
    Во все тяжкие смотреть онлайн
    Cкачать фильм Во все тяжкие бесплатно
    Во все тяжкие скачать торрент в хорошем качестве
    Во все тяжкие смотреть онлайн бесплатно в хорошем качестве


    Вы не можете начинать темы
    Вы не можете отвечать на сообщения
    Вы не можете редактировать свои сообщения
    Вы не можете удалять свои сообщения
    Вы не можете голосовать в опросах
    Вы не можете прикреплять файлы к сообщениям
    Вы можете скачивать файлы