Ссылка на приватное зеркало всего за 1$. Внимание количество ограничено!!!

OK

1+1

iTunes

мы

OK

1

WEB-DLRip

Джокер

Пифагор

Ведьмак / The Witcher сериал

iTunes

ПШазам

ОК

Оно 2

iTunes

30
pack

Вам бонус

ВАЖНО

!!Акция!!

Alien_RageХит недели

RePack

Resident Evil 21

ИГРА 18+

pack

RePack

jed

RePack

fifa19

RePack

Assassins Creed: Odyssey

RePack

NEED FOR SPEED™ PAYBACK

4 сезон

9 сезон

Бесстыжие 9 сезон

Все сериалы

все сериалы на PB.wtf

RePack

FAR CRY 5
  

Маленький большой герой / Monkey King Reloaded (Феликс Ип, Пол Ван) [2018, мультфильм, приключения, семейный, детский, WEB-DL 720p] DUB [Line] pb.wtf

Маленький большой герой через торрент pb.wtf

Размер: 2.96 GB | Добавлен: 1 год 4 мес. назад | Торрент скачан:86 раз
Скачать  

07-09-2018 11:55 Маленький большой герой Скачать торрент  

Маленький большой герой / Monkey King Reloaded
Год выпуска: 2018
Страна: Китай, США
Жанр: мультфильм, приключения, семейный, детский
Продолжительность: 01:07:05
Перевод: Дублированный | Line
Субтитры: отсутствуют

Режиссер: Феликс Ип, Пол Ван



В ролях: Нет информации

Описание:

Маленькая обезьянка Санни всю жизнь прожил в своем родном зоопарке, но мечтал о Большом Городе и Настоящих Приключениях. И однажды судьба забрасывает его в Большой Нью-Йорк, где его ждут приключения, опасности, новые друзья, а самое главное встреча с Главным Злодеем, могущественным Королем Демонов, мечтающим разрушить город мечты Санни. Маленькой Обезьянке придется стать Большим Героем, чтобы спасти Нью-Йорк и новых друзей.

Качество: WEB-DL 720p
Формат: MKV

Видео: h.264, 5 113 Кбит/с, 1280x536
Аудио#1: Русский, (AC3, 2 ch, 384 Кбит/с)
скриншот  скриншот  скриншот  

Общее
Уникальный идентификатор : 229837791220822655621010723737723914887 (0xACE926009552F87F90982F6880A6CA87)
Полное имя : E:\торреннты\melki1.bolishoii.geroj.2018.d.web-dl.72Op.mkv
Формат : Matroska
Версия формата : Version 2
Размер файла : 2,96 Гбайт
Продолжительность : 1 ч. 17 м.
Режим общего битрейта : Переменный
Общий поток : 5499 Кбит/сек
Дата кодирования : UTC 2018-09-07 10:33:44
Программа кодирования : mkvmerge v8.3.0 ('Over the Horizon') 64bit
Библиотека кодирования : libebml v1.3.1 + libmatroska v1.4.2

Видео
Идентификатор : 1
Формат : AVC
Формат/Информация : Advanced Video Codec
Профиль формата : High@L4.1
Настройки формата : CABAC / 4 Ref Frames
Параметр CABAC формата : Да
Параметр RefFrames формата : 4 кадра
Идентификатор кодека : V_MPEG4/ISO/AVC
Продолжительность : 1 ч. 17 м.
Вид битрейта : Переменный
Битрейт : 5113 Кбит/сек
Максимальный битрейт : 5600 Кбит/сек
Ширина : 1280 пикселей
Высота : 536 пикселей
Соотношение сторон : 2,40:1
Режим частоты кадров : Постоянный
Частота кадров : 23,976 (24000/1001) кадра/сек
Стандарт вещания : Component
Цветовое пространство : YUV
Субдискретизация насыщенности : 4:2:0
Битовая глубина : 8 бит
Тип развёртки : Прогрессивная
Бит/(Пиксели*Кадры) : 0.304
Размер потока : 2,70 Гбайт (91%)
Default : Да
Forced : Нет
Цветовой диапазон : Limited
Основные цвета : BT.709
Характеристики трансфера : BT.709
Коэффициенты матрицы : BT.709

Аудио
Идентификатор : 2
Формат : AC-3
Формат/Информация : Audio Coding 3
Идентификатор кодека : A_AC3
Продолжительность : 1 ч. 17 м.
Вид битрейта : Постоянный
Битрейт : 384 Кбит/сек
Каналы : 2 канала
Расположение каналов : Front: L R
Частота : 48,0 КГц
Частота кадров : 31,250 кадров/сек (1536 SPF)
Битовая глубина : 16 бит
Метод сжатия : С потерями
Размер потока : 212 Мбайт (7%)
ServiceKind/String : Complete Main
Default : Да
Forced : Нет

pb.wtf



Скачать Маленький большой герой через торрент http://img11.lostpic.net/2018/08/16/1cf6a838c82685ab96fd18e7d37ee7c1.jpg Скачать фильм Маленький большой герой через торрент бесплантно в хорошем качестве Описание: Маленькая обезьянка Санни всю жизнь прожил в своем родном зоопарке, но мечтал о Большом Городе и Настоящих Приключениях. И ... 10 10 4
Торрент: Зарегистрирован [2018-09-07 11:55] · скачан: 86 раз
Статус: T временная
Размер: 2.96 GB
Как cкачать? Как скачать Маленький большой герой через торрент | qTorrent

% Раздел Тема Автор DL S | L
T Фильмы (мультфильмы) cо спонсором показа (Новинки AVI/MKV) [ 1.37 GB ] Маленький большой герой / Monkey King Reloaded [2018 мультфильм детский WEB-DLRip] DUB [Line] bober100 Скачать
1 | 0

28-11-2019 20:33  

Отключить всю рекламу на сайте

    Дорогой пользователь! Огромная просьба, поблагодарите релизера, оцените раздачу и оставьте свои комментарий, если Вы скачали Маленький большой герой через торрент бесплатно! Внесите свою лепту в развитие PiratBit!
    Комментировать посты могут только пользователи прошедшие не сложную регистрацию
    Показать сообщения:    

    Маленький большой герой через торрент
    Скачать бесплатно Маленький большой герой
    Маленький большой герой скачать торрент
    Маленький большой герой смотреть онлайн
    Cкачать фильм Маленький большой герой бесплатно
    Маленький большой герой скачать торрент в хорошем качестве
    Маленький большой герой смотреть онлайн бесплатно в хорошем качестве


    Вы не можете начинать темы
    Вы не можете отвечать на сообщения
    Вы не можете редактировать свои сообщения
    Вы не можете удалять свои сообщения
    Вы не можете голосовать в опросах
    Вы не можете прикреплять файлы к сообщениям
    Вы можете скачивать файлы