Ссылка на приватное зеркало нашего сайта всего за 1$. Внимание количество ограничено!!!

2 сезон

iTunes

1 сезон

1

2 сезон

2 сезон

iTunes

1 сезон

RePack

30

Ultimate

ВАЖНО

ИГРА 18+

pack

RePack

MK11
pack

Забери бонус

RePack

jed

!!Акция!!

Alien_Rage

RePack

fifa19

RePack

Assassins Creed: Odyssey

RePack

NEED FOR SPEED™ PAYBACK

4 сезон

9 сезон

Бесстыжие 9 сезон

Все сериалы

все сериалы на PB.wtf

RePack

FAR CRY 5
  

Железный кулак / Iron Fist / Сезон: 2 / Серии: 1-10 из 10 (Джон Дал, Фэррен Блэкберн) [2018, Фантастика, боевик, криминал, приключения, WEBRip] MVO [ColdFilm] pb.wtf

Железный кулак через торрент pb.wtf

Размер: 5.93 GB | Добавлен: 2 года 2 мес. назад | Торрент скачан:35 раз
Скачать  

07-09-2018 13:21 Железный кулак Скачать торрент  

Железный кулак / Iron FistГод выпуска: 2018
Страна: США
Жанр: Фантастика, боевик, криминал, приключения
Продолжительность: ~ 00:58:00
Перевод: Любительский (многоголосый) |
Субтитры: отсутствуют

Режиссер: Джон Дал, Фэррен Блэкберн, Ута Бризвитц

rating

В ролях:

Финн Джонс, Джессика Хенвик, Джессика Строуп, Дэвид Уэнэм, Розарио Доусон, Рамон Фернандес, Хосе Баэс, Людовик Куто, Тоби Николс, Крэйг Джерати, Доа Моа, Тихуана Рикс, По Шадоу, Йинка Адебойэку, Джастин Блейк, Никита Боголюбов, Николь Бонифачио, Альберто Бонилла, Эммануэль Браун

Описание:

Спустя годы после исчезновения Дэниэл Рэнд возвращается в Нью-Йорк и начинает борьбу с криминалом, используя свои невообразимые навыки кунг-фу и способность вызывать силу Железного кулака.

Качество: WEBRip
Формат: AVI

Видео: ~ 1378 Кбит/с, 720x400, 29.970 fps
Аудио: Русский / MP3 / 2.0 / 192kbs
скриншот  скриншот  скриншот  скриншот  

Общее
Полное имя : E:\Iron.Fist.S02.400p.ColdFilm\Iron.Fist.S02E01.400p.ColdFilm.avi
Формат : AVI
Формат/Информация : Audio Video Interleave
Размер файла : 661 Мбайт
Продолжительность : 57 м. 39 с.
Общий поток : 1602 Кбит/сек
Программа кодирования : Lavf57.40.101

Видео
Идентификатор : 1
Формат : MPEG-4 Visual
Параметр BVOP формата : Нет
Параметр QPel формата : Нет
Параметр GMC формата : Без точки перехода
Параметр матрицы формата : Default (H.263)
Идентификатор кодека : FMP4
Продолжительность : 57 м. 39 с.
Битрейт : 1378 Кбит/сек
Ширина : 720 пикселей
Высота : 400 пикселей
Соотношение сторон : 16:9
Режим частоты кадров : Переменный
Частота кадров : 119,880 (24/30) кадров/сек
Минимальная частота кадров : 23,976 кадра/сек
Максимальная частота кадров : 29,970 кадров/сек
Цветовое пространство : YUV
Субдискретизация насыщенности : 4:2:0
Битовая глубина : 8 бит
Тип развёртки : Прогрессивная
Метод сжатия : С потерями
Бит/(Пиксели*Кадры) : 0.040
Размер потока : 569 Мбайт (86%)
Библиотека кодирования : Lavc57.48.101

Аудио
Идентификатор : 0
Формат : MPEG Audio
Версия формата : Version 1
Профиль формата : Layer 3
Настройки формата : Joint stereo
Идентификатор кодека : 55
Идентификатор кодека/Подсказка : MP3
Продолжительность : 57 м. 39 с.
Вид битрейта : Постоянный
Битрейт : 192 Кбит/сек
Каналы : 2 канала
Частота : 48,0 КГц
Метод сжатия : С потерями
Размер потока : 79,2 Мбайт (12%)
Выравнивание : Соединение по промежуткам
Продолжительность промежутка : 8 мс. (1,00 видеокадр)

Когда раздача ведётся путём добавления новых серий, при каждом добавлении создётся новый торрент. Чтобы начать докачку новой серии, пользователям необходимо сделать следующее:
(1) остановить скачивание,
(2) удалить старый торрент у себя из клиента (старые серии удалять не надо),
(3) скачать новый торрент и запустить его у себя в клиенте вместо старого, при этом указать клиенту путь в старую папку, куда и должно происходить скачивание новых серий.
Ваш клиент при этом должен произвести хеширование (проверку) старой папки (если не производит сам - помогите ему сделать это), и будет докачивать только те серии, которых у вас ещё нет. Старые серии при этом не удаляются, а продолжают раздаваться!
Eсли вы уже удалили старые серии, то предотвратить повторную закачку старых серий можно, отжав галочку в соответсвующих местах при запуске нового торрента. По возможности, желательно не удалять старые серии как можно дольше, чтобы релизёр не столько продолжал раздавать старые серии, а смог сконцентрироваться на новых.
pb.wtf



Скачать Железный кулак через торрент https://i2.imageban.ru/out/2018/09/07/6c8908e4edfde6e73283b72c49b56e9a.jpg Скачать фильм Железный кулак через торрент бесплантно в хорошем качестве Описание: Спустя годы после исчезновения Дэниэл Рэнд возвращается в Нью-Йорк и начинает борьбу с криминалом, используя свои невообразимые ... 10 10 3
Торрент: Зарегистрирован [2018-09-09 09:06] · скачан: 35 раз
Статус: √ проверено
Размер: 5.93 GB
Как cкачать? Как скачать Железный кулак через торрент | qTorrent

% Раздел Тема Автор DL S | L
Зарубежные сериалы [ 83.15 GB ] Железный кулак / Iron Fist / Сезон: 2 / Серии: 1-10 из 10 [2018 WEBRip 2160p] 3xMVO [LostFilm Baibako NewStudio] sheker187 Скачать
1 | 0
Зарубежные сериалы [ 21.98 GB ] Железный кулак / Marvel's Iron Fist / Сезон: 2 / Серии: 1-10 из 10 [2018 WEBRip 1080p] MVO [Jaskier] bober100 Скачать
1 | 0
Зарубежные сериалы [ 9.26 GB ] Железный кулак / Marvel's Iron Fist / Сезон: 2 / Серии: 1-10 из 10 [2018 WEBRip 720p] MVO [Jaskier] bober100 Скачать
1 | 0
Зарубежные сериалы [ 6.4 GB ] Железный кулак / Marvel's Iron Fist / Сезон: 2 / Серии: 1-10 из 10 [2018 WEBRip] MVO [Jaskier] bober100 Скачать
1 | 0
Зарубежные сериалы [ 73.73 GB ] Железный кулак / Iron Fist / Сезон: 2 / Серии: 1-9 из 10 [2018 WEBRip 2160p] 2xMVO [LostFilm Baibako] bober100 Скачать
1 | 0
Зарубежные сериалы [ 4.33 GB ] Железный кулак / Iron Fist / Сезон: 2 / Серии: 1-10 из 10 [2018 WEBRip] MVO [LostFilm] bober100 Скачать
2 | 0
Зарубежные сериалы [ 5.95 GB ] Железный кулак / Iron Fist / Сезон: 2 / Серии 1-10 из 10 [2018 WEBRip] MVO [BaibaKo] GEKADOL Скачать
1 | 0


Последний раз редактировалось: bober100 (2018-09-09 09:06), всего редактировалось 1 раз

28-11-2019 20:33  

Отключить всю рекламу на сайте

09-09-2018 08:11 Железный кулак Скачать торрент  

Где остальные серии?pb.wtf



    Дорогой пользователь! Огромная просьба, поблагодарите релизера, оцените раздачу и оставьте свои комментарий, если Вы скачали Железный кулак через торрент бесплатно! Внесите свою лепту в развитие PiratBit!
    Комментировать посты могут только пользователи прошедшие не сложную регистрацию
    Показать сообщения:    

    Железный кулак через торрент
    Скачать бесплатно Железный кулак
    Железный кулак скачать торрент
    Железный кулак смотреть онлайн
    Cкачать фильм Железный кулак бесплатно
    Железный кулак скачать торрент в хорошем качестве
    Железный кулак смотреть онлайн бесплатно в хорошем качестве


    Вы не можете начинать темы
    Вы не можете отвечать на сообщения
    Вы не можете редактировать свои сообщения
    Вы не можете удалять свои сообщения
    Вы не можете голосовать в опросах
    Вы не можете прикреплять файлы к сообщениям
    Вы можете скачивать файлы