Ссылка на приватное зеркало нашего сайта всего за 1$. Внимание количество ограничено!!!

2 сезон

iTunes

1 сезон

1

2 сезон

2 сезон

iTunes

1 сезон

RePack

30

Новинка

ВАЖНО

ИГРА 18+

pack

RePack

MK11
pack

Забери бонус

RePack

jed

!!Акция!!

Alien_Rage

RePack

fifa19

RePack

Assassins Creed: Odyssey

RePack

NEED FOR SPEED™ PAYBACK

4 сезон

9 сезон

Бесстыжие 9 сезон

Все сериалы

все сериалы на PB.wtf

RePack

FAR CRY 5
  

Пятый элемент / The Fifth Element (Люк Бессон) [1997, фантастика, боевик, триллер, UHD BDRip 2160p] 2xDUB + MVO + DVO + 3xAVO + 3xMVO (ukr) pb.wtf

Пятый элемент через торрент pb.wtf

Размер: 39.53 GB | Добавлен: 2 года 2 мес. назад | Торрент скачан:36 раз
Скачать  

08-09-2018 12:06 Пятый элемент Скачать торрент  

Пятый элемент / The Fifth Element

Год выпуска: 1997
Страна: Франция
Жанр: фантастика, боевик, триллер, комедия
Продолжительность: 02:05:53
Перевод: Дублированный, профессиональный многоголосый, профессиональный двухголосый, авторский
Субтитры: Русские, английские, испанские, французские
Режиссер: Люк Бессон
В ролях:

Брюс Уиллис (Korben Dallas), Милла Йовович (Leeloo), Гари Олдман (Zorg), Иэн Холм (Cornelius), Крис Такер (Ruby Rhod), Люк Перри (Billy), Брайон Джеймс (General Munro), Том ’Тайни’ Листер мл. (President Lindberg), Ли Эванс (Fog), Чарли Крид-Майлз (David), Tricky (Right Arm), Джон Невилл (General Staedert)
Описание:
Каждые пять тысяч лет открываются двери между измерениями и темные силы стремятся нарушить существующую гармонию. Каждые пять тысяч лет Вселенной нужен герой, способный противостоять этому злу. XXIII век. Нью-йоркский таксист Корбен Даллас должен решить глобальную задачу - спасение всего рода человеческого.
Рейтинг:

MPAA: PG-13 - Детям до 13 лет просмотр не желателен
Качество: UHD BDRip 2160p
Формат: MKV
Видео: HEVC, HDR, 30.8 Mбит/с, 3840x1606, 23.976 Кадр/с
Аудио 1: Russian: 48 kHz, DTS, 5.1 ch, 1509 kbps |Дубляж, «Амальгама»|
Аудио 2: Russian: 48 kHz, AC3, 5.1 ch, 448 kbps |Дубляж, «HTB-Профит»|
Аудио 3: Russian: 48 kHz, AC3, 5.1 ch, 448 kbps |Многоголосый закадровый, «СТС»|
Аудио 4: Russian: 48 kHz, DTS, 5.1 ch, 1509 kbps |Двухголосый закадровый, «П.Гланц, И.Королёва»|
Аудио 5: Russian: 48 kHz, DTS, 5.1 ch, 1509 kbps |Одноголосый закадровый, «А.Гаврилов»|
Аудио 6: Russian: 48 kHz, AC3, 5.1 ch, 1509 kbps |Одноголосый закадровый, «Ю.Живов»|
Аудио 7: Russian: 48 kHz, AC3, 2.0 ch, 192 kbps |Одноголосый , закадровый, Антонов|
Аудио 8: Ukrainian:48 kHz, AC3, 2.0 ch, 192 kbps |Многоголосый, закадровый, «СТБ»|
Аудио 9: Ukrainian: 48 kHz, AC3, 2.0 ch, 192 kbps |Многоголосый, закадровый, «1+1»|
Аудио 10: Ukrainian: 48 kHz, AC3, 2.0 ch, 192 kbps |Многоголосый, закадровый, «ICTV»|
Аудио 11: English: Dolby ATMOS TrueHD Audio / 7.1 ch / 48 kHz / 5666 kbps / 24-bit (AC3 Embedded: 5.1 / 48 kHz / 640 kbps) |Original|
Аудио 12: English: 48 kHz / AC3 / 5.1 ch / 640 Kbps |Original|
Навигация по главам: есть
• Люк Бессон написал сценарий к картине еще в то время, когда был учеником средней школы.
• Полное имя Лилу звучит так — «ЛилуминАй ЛекатАриба ЛаминачАй Экбат Дэ СэбАт».
• Язык, на котором разговаривает персонаж Миллы Йовович — Лилу, был придуман самим Люком Бессоном. Разумеется, не обошлось и без импровизации самой актрисы. К моменту окончания съемок они могли спокойно болтать друг с другом на выдуманном языке, чем приводили в восторг всю съемочную бригаду.
• Среди этой тарабарщины зритель может выявить такие фразы как «Мларта», «Биг Бадабум», «Акта», «Сено Акта Гамат», «Сан агамат чей бэт Энволет», «Данко», «Домо Данко» и «Апипулай». Все остальные фразы звучат нечленораздельно.
• Взрыв в главном Флостонском зале на момент выхода картины в прокат был самым мощным взрывом внутри помещения, когда-либо демонстрируемым в рамках художественного фильма.
• В самом начале картины персонаж Гари Олдмана цитирует Ницше: «То, что тебя не убивает, делает тебя только сильнее». Брюс Уиллис в свое время записал альбом с точно таким же названием.
• По сценарию персонажа Криса Такера звали вовсе не Руби Род, а Лок Род. Именно это имя (Локк) можно встретить и в книге, написанной по мотивам фильма.
• Впервые увидев Корбена Далласа в кадре, мы можем увидеть дату на календаре в его комнате — 18 марта 2263 года. 18 марта — день рождения Люка Бессона.
• Когда Президент говорит священнику Корнелиусу, что у того есть ровно двадцать секунд, чтобы озвучить свою мысль, Вито успевает донести свои суждения именно за 20 секунд.
• Интересно, что главный протагонист (Уиллис) и главный антагонист (Олдман) на протяжении всего хода картины не то, что ни разу не встречаются, они даже ни разу не разговаривают друг с другом.
• Имя певицы, прячущей заветные камни в недрах своей плоти, звучит как «Плава Лагуна». Именно такое название носит бомбоубежище в Хорватии, где Люк довольно часто проводил свои летние каникулы, будучи ребенком. В переводе с хорватского данное имя звучит как «Голубая лагуна».
• За всю историю французского кино данная лента стала самой дорогостоящей как для всей Франции, так и для кинокомпании Gaumont в частности.
• К моменту выхода картины в прокат затраты на создание спецэффектов в размере 80 миллионов были самыми дорогостоящими в истории кино. До сих пор картина считается одной из самых дорогостоящих картин, выпущенных без участия Голливуда.
• В 2002 году по лицензии кинокомпании Gaumont по мотивам фильма была выпущена компьютерная аркада «NY Race». В России локализована компаниями Nival Interactive и 1С под названием «Погоня за Пятым элементом». Игроку предлагается ощутить себя «в шкуре» Корбена Далласа и погонять такси по улицам Нью-Йорка 2259 года.
• Часть арии Плавы Лагуны спета не человеческим голосом, а создана на компьютере. Для человека исполнение этой партии практически невозможно.
• Когда Лилу восстанавливают по коду ДНК, ее одежда в точности повторяет одежду Марии в фантастическом фильме «Метрополис» 1927 года.
• Надпись на поезде «Макдональдс», в который врезается полицейская машина, гласит: «Обслужено 65 триллионов людей».
• Паразиты, от которых очищают шасси космолета, перед отлетом во Флостонский рай, на самом деле Богины (Boglins), популярные в 80-х игрушки.
• Гари Олдман согласился сниматься в этом фильме, не читая сценария. Это было любезностью по отношению к Люку Бессону, с которым он подружился на съёмках «Леона».
Complete name : F:\The.Fifth.Element.1997.2160p.UHD.BluRay.x265-SpaceHD13.mkv
Format : Matroska
Format version : Version 4 / Version 2
File size : 39.5 GiB
Duration : 2 h 5 min
Overall bit rate mode : Variable
Overall bit rate : 44.9 Mb/s
Movie name : The.Fifth.Element.1997.2160p.UHD.BluRay.x265-SpaceHD13
Encoded date : UTC 2018-09-07 20:49:40
Writing application : mkvmerge v25.0.0 ('Prog Noir') 64-bit
Writing library : libebml v1.3.6 + libmatroska v1.4.9

Video
ID : 1
Format : HEVC
Format/Info : High Efficiency Video Coding
Commercial name : HDR10
Format profile : Main 10@L5.1@High
Codec ID : V_MPEGH/ISO/HEVC
Duration : 2 h 5 min
Bit rate : 30.8 Mb/s
Width : 3 840 pixels
Height : 1 606 pixels
Display aspect ratio : 2.40:1
Frame rate mode : Constant
Frame rate : 23.976 (24000/1001) FPS
Color space : YUV
Chroma subsampling : 4:2:0 (Type 2)
Bit depth : 10 bits
Bits/(Pixel*Frame) : 0.208
Stream size : 27.1 GiB (68%)
Title : The.Fifth.Element.1997.2160p.UHD.BluRay.x265-SpaceHD13
Writing library : x265 2.5+27-0e168bdeb48b:[Windows][GCC 6.2.1][64 bit] 10bit
Encoding settings : cpuid=1173503 / frame-threads=4 / numa-pools=20 / wpp / no-pmode / no-pme / no-psnr / no-ssim / log-level=2 / input-csp=1 / input-res=3840x1606 / interlace=0 / total-frames=181104 / level-idc=51 / high-tier=1 / uhd-bd=0 / ref=4 / no-allow-non-conformance / repeat-headers / annexb / aud / hrd / info / hash=0 / no-temporal-layers / no-open-gop / min-keyint=1 / keyint=24 / bframes=4 / b-adapt=2 / b-pyramid / bframe-bias=0 / rc-lookahead=25 / lookahead-slices=4 / scenecut=40 / no-intra-refresh / ctu=64 / min-cu-size=8 / rect / no-amp / max-tu-size=32 / tu-inter-depth=1 / tu-intra-depth=1 / limit-tu=0 / rdoq-level=2 / dynamic-rd=0.00 / no-ssim-rd / signhide / no-tskip / nr-intra=0 / nr-inter=0 / no-constrained-intra / no-strong-intra-smoothing / max-merge=3 / limit-refs=3 / limit-modes / me=3 / subme=3 / merange=57 / temporal-mvp / weightp / no-weightb / no-analyze-src-pics / deblock=-3:-3 / no-sao / no-sao-non-deblock / rd=4 / no-early-skip / rskip / no-fast-intra / no-tskip-fast / no-cu-lossless / no-b-intra / no-splitrd-skip / rdpenalty=0 / psy-rd=2.00 / psy-rdoq=1.00 / no-rd-refine / analysis-reuse-mode=0 / no-lossless / cbqpoffs=0 / crqpoffs=0 / rc=crf / crf=19.0 / qcomp=0.60 / qpstep=4 / stats-write=0 / stats-read=0 / vbv-maxrate=160000 / vbv-bufsize=160000 / vbv-init=0.9 / crf-max=0.0 / crf-min=0.0 / ipratio=1.40 / pbratio=1.30 / aq-mode=1 / aq-strength=1.00 / cutree / zone-count=0 / no-strict-cbr / qg-size=32 / no-rc-grain / qpmax=69 / qpmin=0 / no-const-vbv / sar=1 / overscan=0 / videoformat=5 / range=0 / colorprim=9 / transfer=16 / colormatrix=9 / chromaloc=1 / chromaloc-top=2 / chromaloc-bottom=2 / display-window=0 / master-display=G(13250,34500)B(7500,3000)R(34000,16000)WP(15635,16450)L(40000000,50) / max-cll=10000,724 / min-luma=0 / max-luma=1023 / log2-max-poc-lsb=8 / vui-timing-info / vui-hrd-info / slices=1 / opt-qp-pps / opt-ref-list-length-pps / no-multi-pass-opt-rps / scenecut-bias=0.05 / no-opt-cu-delta-qp / no-aq-motion / hdr / hdr-opt / no-dhdr10-opt / analysis-reuse-level=5 / scale-factor=0 / refine-intra=0 / refine-inter=0 / refine-mv=0 / no-limit-sao / ctu-info=0
Default : Yes
Forced : No
Color range : Limited
Color primaries : BT.2020
Transfer characteristics : PQ
Matrix coefficients : BT.2020 non-constant
Mastering display color pri : Display P3
Mastering display luminance : min: 0.0050 cd/m2, max: 4000 cd/m2
Maximum Content Light Level : 10000 cd/m2
Maximum Frame-Average Light : 724 cd/m2

Audio #1
ID : 2
Format : DTS
Format/Info : Digital Theater Systems
Codec ID : A_DTS
Duration : 2 h 5 min
Bit rate mode : Constant
Bit rate : 1 509 kb/s
Channel(s) : 6 channels
Channel positions : Front: L C R, Side: L R, LFE
Sampling rate : 48.0 kHz
Frame rate : 93.750 FPS (512 SPF)
Bit depth : 24 bits
Compression mode : Lossy
Stream size : 1.33 GiB (3%)
Title : The.Fifth.Element.1997.2160p.UHD.BluRay.x265-SpaceHD13[«Амальгама»]
Language : Russian
Default : No
Forced : No

Audio #2
ID : 3
Format : AC-3
Format/Info : Audio Coding 3
Codec ID : A_AC3
Duration : 2 h 5 min
Bit rate mode : Constant
Bit rate : 448 kb/s
Channel(s) : 6 channels
Channel positions : Front: L C R, Side: L R, LFE
Sampling rate : 48.0 kHz
Frame rate : 31.250 FPS (1536 SPF)
Bit depth : 16 bits
Compression mode : Lossy
Stream size : 403 MiB (1%)
Title : The.Fifth.Element.1997.2160p.UHD.BluRay.x265-SpaceHD13[«HTB Профит»]
Language : Russian
Service kind : Complete Main
Default : No
Forced : No

Audio #3
ID : 4
Format : AC-3
Format/Info : Audio Coding 3
Codec ID : A_AC3
Duration : 2 h 5 min
Bit rate mode : Constant
Bit rate : 448 kb/s
Channel(s) : 6 channels
Channel positions : Front: L C R, Side: L R, LFE
Sampling rate : 48.0 kHz
Frame rate : 31.250 FPS (1536 SPF)
Bit depth : 16 bits
Compression mode : Lossy
Stream size : 403 MiB (1%)
Title : The.Fifth.Element.1997.2160p.UHD.BluRay.x265-SpaceHD13[«СТС»]
Language : Russian
Service kind : Complete Main
Default : No
Forced : No

Audio #4
ID : 5
Format : DTS
Format/Info : Digital Theater Systems
Codec ID : A_DTS
Duration : 2 h 5 min
Bit rate mode : Constant
Bit rate : 1 509 kb/s
Channel(s) : 6 channels
Channel positions : Front: L C R, Side: L R, LFE
Sampling rate : 48.0 kHz
Frame rate : 93.750 FPS (512 SPF)
Bit depth : 24 bits
Compression mode : Lossy
Stream size : 1.33 GiB (3%)
Title : The.Fifth.Element.1997.2160p.UHD.BluRay.x265-SpaceHD13[«П.Гланц, И.Королёва»]
Language : Russian
Default : No
Forced : No

Audio #5
ID : 6
Format : DTS
Format/Info : Digital Theater Systems
Codec ID : A_DTS
Duration : 2 h 5 min
Bit rate mode : Constant
Bit rate : 1 509 kb/s
Channel(s) : 6 channels
Channel positions : Front: L C R, Side: L R, LFE
Sampling rate : 48.0 kHz
Frame rate : 93.750 FPS (512 SPF)
Bit depth : 24 bits
Compression mode : Lossy
Stream size : 1.33 GiB (3%)
Title : The.Fifth.Element.1997.2160p.UHD.BluRay.x265-SpaceHD13[«А.Гаврилов»]
Language : Russian
Default : No
Forced : No

Audio #6
ID : 7
Format : DTS
Format/Info : Digital Theater Systems
Codec ID : A_DTS
Duration : 2 h 5 min
Bit rate mode : Constant
Bit rate : 1 509 kb/s
Channel(s) : 6 channels
Channel positions : Front: L C R, Side: L R, LFE
Sampling rate : 48.0 kHz
Frame rate : 93.750 FPS (512 SPF)
Bit depth : 24 bits
Compression mode : Lossy
Stream size : 1.33 GiB (3%)
Title : The.Fifth.Element.1997.2160p.UHD.BluRay.x265-SpaceHD13[«Ю.Живов»]
Language : Russian
Default : No
Forced : No

Audio #7
ID : 8
Format : AC-3
Format/Info : Audio Coding 3
Codec ID : A_AC3
Duration : 2 h 5 min
Bit rate mode : Constant
Bit rate : 192 kb/s
Channel(s) : 2 channels
Channel positions : Front: L R
Sampling rate : 48.0 kHz
Frame rate : 31.250 FPS (1536 SPF)
Bit depth : 16 bits
Compression mode : Lossy
Stream size : 173 MiB (0%)
Title : The.Fifth.Element.1997.2160p.UHD.BluRay.x265-SpaceHD13[«Антонов»]
Language : Russian
Service kind : Complete Main
Default : No
Forced : No

Audio #8
ID : 9
Format : AC-3
Format/Info : Audio Coding 3
Codec ID : A_AC3
Duration : 2 h 5 min
Bit rate mode : Constant
Bit rate : 192 kb/s
Channel(s) : 2 channels
Channel positions : Front: L R
Sampling rate : 48.0 kHz
Frame rate : 31.250 FPS (1536 SPF)
Bit depth : 16 bits
Compression mode : Lossy
Stream size : 173 MiB (0%)
Title : The.Fifth.Element.1997.2160p.UHD.BluRay.x265-SpaceHD13[«СТБ»]
Language : Ukrainian
Service kind : Complete Main
Default : No
Forced : No

Audio #9
ID : 10
Format : AC-3
Format/Info : Audio Coding 3
Codec ID : A_AC3
Duration : 2 h 5 min
Bit rate mode : Constant
Bit rate : 192 kb/s
Channel(s) : 2 channels
Channel positions : Front: L R
Sampling rate : 48.0 kHz
Frame rate : 31.250 FPS (1536 SPF)
Bit depth : 16 bits
Compression mode : Lossy
Stream size : 173 MiB (0%)
Title : The.Fifth.Element.1997.2160p.UHD.BluRay.x265-SpaceHD13[«1+1»]
Language : Ukrainian
Service kind : Complete Main
Default : No
Forced : No

Audio #10
ID : 11
Format : AC-3
Format/Info : Audio Coding 3
Codec ID : A_AC3
Duration : 2 h 5 min
Bit rate mode : Constant
Bit rate : 192 kb/s
Channel(s) : 2 channels
Channel positions : Front: L R
Sampling rate : 48.0 kHz
Frame rate : 31.250 FPS (1536 SPF)
Bit depth : 16 bits
Compression mode : Lossy
Stream size : 173 MiB (0%)
Title : The.Fifth.Element.1997.2160p.UHD.BluRay.x265-SpaceHD13[«ICTV»]
Language : Ukrainian
Service kind : Complete Main
Default : No
Forced : No

Audio #11
ID : 12
Format : TrueHD
Format profile : TrueHD+Atmos / TrueHD
Codec ID : A_TRUEHD
Duration : 2 h 5 min
Bit rate mode : Variable
Bit rate : 5 666 kb/s
Maximum bit rate : 9 144 kb/s
Channel(s) : Object Based / 8 channels
Channel positions : Object Based / Front: L C R, Side: L R, Back: L R, LFE
Sampling rate : / 48.0 kHz
Frame rate : 1 200.000 FPS (40 SPF)
Compression mode : Lossless
Stream size : 4.98 GiB (13%)
Title : The.Fifth.Element.1997.2160p.UHD.BluRay.x265-SpaceHD13
Language : English
Default : Yes
Forced : No

Audio #12
ID : 13
Format : AC-3
Format/Info : Audio Coding 3
Codec ID : A_AC3
Duration : 2 h 5 min
Bit rate mode : Constant
Bit rate : 640 kb/s
Channel(s) : 6 channels
Channel positions : Front: L C R, Side: L R, LFE
Sampling rate : 48.0 kHz
Frame rate : 31.250 FPS (1536 SPF)
Bit depth : 16 bits
Compression mode : Lossy
Stream size : 576 MiB (1%)
Title : The.Fifth.Element.1997.2160p.UHD.BluRay.x265-SpaceHD13
Language : English
Service kind : Complete Main
Default : No
Forced : No

Text #1
ID : 14
Format : PGS
Muxing mode : zlib
Codec ID : S_HDMV/PGS
Codec ID/Info : Picture based subtitle format used on BDs/HD-DVDs
Duration : 1 h 58 min
Bit rate : 32.3 kb/s
Count of elements : 2943
Stream size : 27.3 MiB (0%)
Language : English
Default : No
Forced : No

Text #2
ID : 15
Format : PGS
Muxing mode : zlib
Codec ID : S_HDMV/PGS
Codec ID/Info : Picture based subtitle format used on BDs/HD-DVDs
Duration : 2 h 5 min
Bit rate : 36.4 kb/s
Count of elements : 3661
Stream size : 32.6 MiB (0%)
Title : SDH
Language : English
Default : No
Forced : No

Text #3
ID : 16
Format : PGS
Muxing mode : zlib
Codec ID : S_HDMV/PGS
Codec ID/Info : Picture based subtitle format used on BDs/HD-DVDs
Duration : 2 h 2 min
Bit rate : 21.2 kb/s
Count of elements : 2422
Stream size : 18.6 MiB (0%)
Language : French
Default : No
Forced : No

Text #4
ID : 17
Format : PGS
Muxing mode : zlib
Codec ID : S_HDMV/PGS
Codec ID/Info : Picture based subtitle format used on BDs/HD-DVDs
Duration : 1 h 59 min
Bit rate : 28.8 kb/s
Count of elements : 2862
Stream size : 24.7 MiB (0%)
Language : Spanish
Default : No
Forced : No

Text #5
ID : 18
Format : PGS
Muxing mode : zlib
Codec ID : S_HDMV/PGS
Codec ID/Info : Picture based subtitle format used on BDs/HD-DVDs
Duration : 2 h 0 min
Bit rate : 42.6 kb/s
Count of elements : 2522
Stream size : 36.8 MiB (0%)
Language : Russian
Default : Yes
Forced : No

Text #6
ID : 19
Format : PGS
Muxing mode : zlib
Codec ID : S_HDMV/PGS
Codec ID/Info : Picture based subtitle format used on BDs/HD-DVDs
Duration : 1 h 58 min
Bit rate : 51.6 kb/s
Count of elements : 3284
Stream size : 43.8 MiB (0%)
Language : Russian
Default : No
Forced : No

Menu
00:00:00.000 : en:00:00:00.000
00:02:36.490 : en:00:02:36.490
00:12:11.773 : en:00:12:11.773
00:24:17.539 : en:00:24:17.539
00:32:14.683 : en:00:32:14.683
00:40:05.278 : en:00:40:05.278
00:48:16.811 : en:00:48:16.811
00:53:23.242 : en:00:53:23.242
01:00:16.613 : en:01:00:16.613
01:07:17.033 : en:01:07:17.033
01:11:16.731 : en:01:11:16.731
01:21:54.660 : en:01:21:54.660
01:27:25.657 : en:01:27:25.657
01:38:29.779 : en:01:38:29.779
01:46:35.347 : en:01:46:35.347
01:52:26.365 : en:01:52:26.365
pb.wtf



Скачать Пятый элемент через торрент https://a.radikal.ru/a18/1809/83/fb023b8a75ae.png Скачать фильм Пятый элемент через торрент бесплантно в хорошем качестве Описание: Каждые пять тысяч лет открываются двери между измерениями и темные силы стремятся нарушить существующую гармонию. Каждые пять ... 10 10 2
Info! Золотая раздача, скачанное не засчитывается.
Торрент: Зарегистрирован [2018-09-08 12:06] · скачан: 36 раз
Статус: √ проверено
Размер: 39.53 GB
Как cкачать? Как скачать Пятый элемент через торрент | qTorrent

% Раздел Тема Автор DL S | L
Ultra HD (UHD: 2K, 4K, 8K) — видео сверхвысокой чёткости [ 70.5 GB ] Пятый элемент / The Fifth Element [1997 UHD BDRemux 2160p ] DUB [ BD-RUS - "Амальгама"] bober100 Скачать
2 | 0
Ultra HD (UHD: 2K, 4K, 8K) — видео сверхвысокой чёткости [ 78.9 GB ] Пятый элемент / The Fifth Element [1997 UHD BDRemux 2160p ] 2xDUB bober100 Скачать
1 | 0
Фильмы [HD 720p, 1080p] (Хороший звук DUB, MVO) [ 6.29 GB ] Пятый элемент / The Fifth Element [1997 BDRip 1080p HEVC ] Мичман37 Скачать
1 | 0
Ultra HD (UHD: 2K, 4K, 8K) — видео сверхвысокой чёткости [ 51.61 GB ] Пятый элемент / The Fifth Element [1997 UHD BDRemux 2160p] 2xDUB bober100 Скачать
3 | 0
Ultra HD (UHD: 2K, 4K, 8K) — видео сверхвысокой чёткости [ 58.13 GB ] Пятый элемент / The Fifth Element [1997 UHDWEBRip 2160p] [4K Remastered] 2xDUB+MVO+DVO+3xAVO bober100 Скачать
2 | 0
Фильмы до 2000 г. [ 1.47 GB ] Пятый элемент / The Fifth Element [1997 BDRip] Dub Ворон Скачать
1 | 0
Фильмы (HD 720p, 1080p) (48-60 fps) [ 14.1 GB ] Пятый элемент / The Fifth Element [1997 BDRip 1080p / 60 FPS] Tiberiumsun69 Скачать
1 | 0

28-11-2019 20:33  

Отключить всю рекламу на сайте

    Дорогой пользователь! Огромная просьба, поблагодарите релизера, оцените раздачу и оставьте свои комментарий, если Вы скачали Пятый элемент через торрент бесплатно! Внесите свою лепту в развитие PiratBit!
    Комментировать посты могут только пользователи прошедшие не сложную регистрацию
    Показать сообщения:    

    Пятый элемент через торрент
    Скачать бесплатно Пятый элемент
    Пятый элемент скачать торрент
    Пятый элемент смотреть онлайн
    Cкачать фильм Пятый элемент бесплатно
    Пятый элемент скачать торрент в хорошем качестве
    Пятый элемент смотреть онлайн бесплатно в хорошем качестве


    Вы не можете начинать темы
    Вы не можете отвечать на сообщения
    Вы не можете редактировать свои сообщения
    Вы не можете удалять свои сообщения
    Вы не можете голосовать в опросах
    Вы не можете прикреплять файлы к сообщениям
    Вы можете скачивать файлы