новый адрес
Ссылка на приватное зеркало всего за 1$. Внимание количество ограничено!!!

iTunes

1+1

iTunes

мы

iTunes

1

iTunes

Чернобыль

iTunes

Ральф против интернета

Лицензия

ПШазам

Лицензия

Оно 2

Лицензия

30
pack

Вам бонус

ВАЖНО

!!Акция!!

Alien_RageХит недели

RePack

Resident Evil 21

ИГРА 18+

pack

RePack

jed

!!Акция!!

Alien_Rage

RePack

fifa19

RePack

Assassins Creed: Odyssey

RePack

NEED FOR SPEED™ PAYBACK

3 сезон

9 сезон

Бесстыжие 9 сезон

Все сериалы

все сериалы на PB.wtf

RePack

FAR CRY 5
Ребята, катастрофически не хватает 1900р. для оплаты серверов за Октябрь (всвязи с блокировками трафик упал в 3 раза), 1-2р., выручайте.
  

Кровавый фестиваль / Blood Fest (Оуэн Эгертон) [2018 г., Ужасы, комедия, WEB-DLRip] MVO [HDRezka studio] pb.wtf

Кровавый фестиваль через торрент pb.wtf

Размер: 1.46 GB | Добавлен: 1 год 2 мес. назад | Торрент скачан:292 раза
Скачать  

08-09-2018 13:49 Кровавый фестиваль Скачать торрент  

Кровавый фестиваль / Blood Fest
Год выпуска: 2018
Страна: США / Rooster Teeth Productions
Жанр: Ужасы, комедия
Продолжительность: 01:32:42
Перевод: Профессиональный (многоголосый) [HDRezka studio]
Субтитры: Отсутствуют

Режиссер: Оуэн Эгертон

rating

В ролях: Робби Кей, Сейшелл Гэбриел, Джейкоб Баталон, Барбара Дункельман, Закари Ливай, Тейт Донован, Оливия Грэйс Эпплгейт, Джульетт Кида, Оуэн Эгертон

Описание: Ещё ребенком Дакс стал свидетелем убийства матери, но после этого не перестал любить фильмы ужасов. Через несколько лет в компании единомышленников парень готовится поехать на «Кровавый фестиваль», посвященный самым известным картинам жанра, но отец сильно против. Все-таки пробравшись на заветное мероприятие, Дакс с друзьями вскоре обнаруживает, что название у фестиваля буквальное — фанаты фильмов ужасов сами оказываются участниками в кровавого хоррора.

Доп. информация: Рекламы нет

Качество: WEB-DLRip
Формат: AVI
Видео кодек: XviD
Аудио кодек: AC3
Видео: XviD, 704x352, ~1863 Kbps
Аудио#1: AC-3, 2 ch, 192 Kbps | Русский
Аудио#2: AC-3, 2 ch, 192 Kbps | Английский
скриншот   скриншот   скриншот   скриншот  

Общее
Полное имя : E:\NNM\Кровавый фестиваль\Blood Fest 2018 WEB-DLRip.avi
Формат : AVI
Формат/Информация : Audio Video Interleave
Размер файла : 1,46 Гбайт
Продолжительность : 1 ч. 32 м.
Общий поток : 2261 Кбит/сек
Программа кодирования : VirtualDubMod 1.5.10.2 (build 2540/release)
Библиотека кодирования : VirtualDubMod build 2540/release

Видео
Идентификатор : 0
Формат : MPEG-4 Visual
Профиль формата : Advanced Simple@L5
Настройки формата : BVOP1 / Custom Matrix
Параметр BVOP формата : 1
Параметр QPel формата : Нет
Параметр GMC формата : Без точки перехода
Параметр матрицы формата : Выборочная
Идентификатор кодека : XVID
Идентификатор кодека/Подсказка : XviD
Продолжительность : 1 ч. 32 м.
Битрейт : 1863 Кбит/сек
Ширина : 704 пикселя
Высота : 352 пикселя
Соотношение сторон : 2,000
Частота кадров : 23,976 (24000/1001) кадра/сек
Цветовое пространство : YUV
Субдискретизация насыщенности : 4:2:0
Битовая глубина : 8 бит
Тип развёртки : Прогрессивная
Метод сжатия : С потерями
Бит/(Пиксели*Кадры) : 0.314
Размер потока : 1,21 Гбайт (82%)
Библиотека кодирования : XviD 73

Аудио #1
Идентификатор : 1
Формат : AC-3
Формат/Информация : Audio Coding 3
Идентификатор кодека : 2000
Продолжительность : 1 ч. 32 м.
Вид битрейта : Постоянный
Битрейт : 192 Кбит/сек
Каналы : 2 канала
Расположение каналов : Front: L R
Частота : 48,0 КГц
Частота кадров : 31,250 кадров/сек (1536 SPF)
Битовая глубина : 16 бит
Метод сжатия : С потерями
Размер потока : 127 Мбайт (8%)
Выравнивание : Разделение по промежуткам
Продолжительность промежутка : 42 мс. (1,00 видеокадр)
Время предзагрузки промежутка : 500 мс.
ServiceKind/String : Complete Main

Аудио #2
Идентификатор : 2
Формат : AC-3
Формат/Информация : Audio Coding 3
Идентификатор кодека : 2000
Продолжительность : 1 ч. 32 м.
Вид битрейта : Постоянный
Битрейт : 192 Кбит/сек
Каналы : 2 канала
Расположение каналов : Front: L R
Частота : 48,0 КГц
Частота кадров : 31,250 кадров/сек (1536 SPF)
Битовая глубина : 16 бит
Метод сжатия : С потерями
Размер потока : 127 Мбайт (8%)
Выравнивание : Разделение по промежуткам
Продолжительность промежутка : 42 мс. (1,00 видеокадр)
Время предзагрузки промежутка : 500 мс.
ServiceKind/String : Complete Main

pb.wtf



Скачать Кровавый фестиваль через торрент http://pic1.kartinco.top/images/11/kibtj.jpg Скачать фильм Кровавый фестиваль через торрент бесплантно в хорошем качестве Описание: Ещё ребенком Дакс стал свидетелем убийства матери, но после этого не перестал любить фильмы ужасов. Через несколько лет в ... 9.3 10 12
Торрент: Зарегистрирован [2018-09-08 13:49] · скачан: 292 раз
Статус: T временная
Размер: 1.46 GB
Как cкачать? Как скачать Кровавый фестиваль через торрент | qTorrent

% Раздел Тема Автор DL S | L
T Фильмы (WEB-DL 720p, 1080p) [ 4.22 GB ] Бладфест / Кровавый фестиваль / Blood Fest [2018 WEB-DL 1080p] MVO [HDrezka Studio] bober100 Скачать
1 | 0
T Фильмы 2018 [DVDrip, WEB-DLRip, HDrip] (DUB, MVO) [ 1.46 GB ] Бладфест / Кровавый фестиваль / Blood Fest [2018 WEB-DLRip-AVC] MVO [HDRezka Studio] bober100 Скачать
1 | 0
T Фильмы 2018 [DVDrip, WEB-DLRip, HDrip] (DUB, MVO) [ 1.46 GB ] Бладфест / Кровавый фестиваль / Blood Fest [2018 WEB-DLRip] MVO [HDRezka studio] bober100 Скачать
1 | 0
Отключить всю рекламу на сайте
    Дорогой пользователь! Огромная просьба, поблагодарите релизера, оцените раздачу и оставьте свои комментарий, если Вы скачали Кровавый фестиваль через торрент бесплатно! Внесите свою лепту в развитие PiratBit!
    Комментировать посты могут только пользователи прошедшие не сложную регистрацию
    Показать сообщения:    

    Кровавый фестиваль через торрент
    Скачать бесплатно Кровавый фестиваль
    Кровавый фестиваль скачать торрент
    Кровавый фестиваль смотреть онлайн
    Cкачать фильм Кровавый фестиваль бесплатно
    Кровавый фестиваль скачать торрент в хорошем качестве
    Кровавый фестиваль смотреть онлайн бесплатно в хорошем качестве


    Вы не можете начинать темы
    Вы не можете отвечать на сообщения
    Вы не можете редактировать свои сообщения
    Вы не можете удалять свои сообщения
    Вы не можете голосовать в опросах
    Вы не можете прикреплять файлы к сообщениям
    Вы можете скачивать файлы