Ссылка на приватное зеркало нашего сайта всего за 1$. Внимание количество ограничено!!!

2 сезон

iTunes

1 сезон

1

iTunes

iTunes

iTunes

1 сезон

RePack

30

ИГРА 18+

pack

ВАЖНО

!!Акция!!

Alien_RageХит недели

RePack

MK11
pack

Забери бонус

RePack

jed

!!Акция!!

Alien_Rage

RePack

fifa19

RePack

Assassins Creed: Odyssey

RePack

NEED FOR SPEED™ PAYBACK

4 сезон

9 сезон

Бесстыжие 9 сезон

Все сериалы

все сериалы на PB.wtf

RePack

FAR CRY 5
  

Роза и чертополох / Cерии 1-2 из 2 (Ашот Кещян) [2018 г., Триллер, WEBRip 1080р] pb.wtf

Роза и чертополох через торрент pb.wtf

Размер: 1.22 GB | Добавлен: 2 года 1 мес. назад | Торрент скачан:115 раз
Скачать  

08-09-2018 14:37 Роза и чертополох Скачать торрент  

Роза и чертополох
Год выпуска: 2018
Страна: Россия
Жанр: Триллер
Продолжительность: 2 х ~00:47:00

Режиссер: Ашот Кещян

В ролях: Евгения Лоза, Илья Оболонков, Алексей Анищенко, Екатерина Молоховская, Александра Солянкина, Александр Кульков, Арарат Вартанян, Светлана Брыксина, Михаил Лифанов, Илья Крупенин

Описание: После измены мужа Ольга готова бросить Михаила. Но он попадает в аварию, и Ольга соглашается дать их отношениям последний шанс. Вскоре кто-то начинает ее тайно преследовать. Однако все вокруг считают подозрения Ольги навязчивым бредом. Главный кошмар Ольги: сойти с ума, как и ее погибшая мать, становится реальностью. Пытаясь докопаться до правды, Ольга понимает, что ее пытаются убить. И спасти ее может лишь тот, кто ей поверит.

Доп. информация: Рекламы нет

Качество: WEBRip 1080р
Формат: MKV
Видео кодек: H.264
Аудио кодек: AC3
Видео: AVC/H.264, 1920x1080 (16:9), ~1575 Kbps
Аудио#1: AC3, 2 ch, 192 Kbps
скриншот   скриншот   скриншот   скриншот  

Общее
Уникальный идентификатор : 31958945260770546943910064692262445063 (0x180B11A7D028DC9F06AAA37A9D89A007)
Полное имя : D:\Роза и чертополох (2018).by.Алехаndr\Серия 1.by.Алехаndr.mkv
Формат : Matroska
Версия формата : Version 4
Размер файла : 610 Мбайт
Продолжительность : 48 м. 14 с.
Общий поток : 1767 Кбит/сек
Дата кодирования : UTC 2018-09-07 18:50:28
Программа кодирования : mkvmerge v26.0.0 ('In The Game') 64-bit
Библиотека кодирования : libebml v1.3.6 + libmatroska v1.4.9 / Lavf57.71.100

Видео
Идентификатор : 1
Формат : AVC
Формат/Информация : Advanced Video Codec
Профиль формата : High@L4
Настройки формата : CABAC / 3 Ref Frames
Параметр CABAC формата : Да
Параметр RefFrames формата : 3 кадра
Идентификатор кодека : V_MPEG4/ISO/AVC
Продолжительность : 48 м. 14 с.
Битрейт : 1573 Кбит/сек
Ширина : 1920 пикселей
Высота : 1080 пикселей
Соотношение сторон : 16:9
Режим частоты кадров : Постоянный
Частота кадров : 25,000 кадров/сек
Цветовое пространство : YUV
Субдискретизация насыщенности : 4:2:0
Битовая глубина : 8 бит
Тип развёртки : Прогрессивная
Бит/(Пиксели*Кадры) : 0.030
Размер потока : 543 Мбайт (89%)
Default : Да
Forced : Нет
Цветовой диапазон : Limited
Основные цвета : BT.709
Характеристики трансфера : BT.709
Коэффициенты матрицы : BT.709

Аудио
Идентификатор : 2
Формат : AC-3
Формат/Информация : Audio Coding 3
Коммерческое название : Dolby Digital
Идентификатор кодека : A_AC3
Продолжительность : 48 м. 14 с.
Вид битрейта : Постоянный
Битрейт : 192 Кбит/сек
Каналы : 2 канала
Channel layout : L R
Частота : 48,0 КГц
Частота кадров : 31,250 кадров/сек (1536 SPF)
Битовая глубина : 16 бит
Метод сжатия : С потерями
Размер потока : 66,3 Мбайт (11%)
ServiceKind/String : Complete Main
Default : Да
Forced : Нет

Общее
Уникальный идентификатор : 278883302168739564026182710039811745250 (0xD1CEF863329D1A9FA778A723278865E2)
Полное имя : D:\Роза и чертополох (2018).by.Алехаndr\Серия 2.by.Алехаndr.mkv
Формат : Matroska
Версия формата : Version 4
Размер файла : 643 Мбайт
Продолжительность : 47 м. 37 с.
Общий поток : 1888 Кбит/сек
Дата кодирования : UTC 2018-09-07 18:50:46
Программа кодирования : mkvmerge v26.0.0 ('In The Game') 64-bit
Библиотека кодирования : libebml v1.3.6 + libmatroska v1.4.9 / Lavf57.71.100

Видео
Идентификатор : 1
Формат : AVC
Формат/Информация : Advanced Video Codec
Профиль формата : High@L4
Настройки формата : CABAC / 3 Ref Frames
Параметр CABAC формата : Да
Параметр RefFrames формата : 3 кадра
Идентификатор кодека : V_MPEG4/ISO/AVC
Продолжительность : 47 м. 37 с.
Битрейт : 1694 Кбит/сек
Ширина : 1920 пикселей
Высота : 1080 пикселей
Соотношение сторон : 16:9
Режим частоты кадров : Постоянный
Частота кадров : 25,000 кадров/сек
Цветовое пространство : YUV
Субдискретизация насыщенности : 4:2:0
Битовая глубина : 8 бит
Тип развёртки : Прогрессивная
Бит/(Пиксели*Кадры) : 0.033
Размер потока : 577 Мбайт (90%)
Default : Да
Forced : Нет
Цветовой диапазон : Limited
Основные цвета : BT.709
Характеристики трансфера : BT.709
Коэффициенты матрицы : BT.709

Аудио
Идентификатор : 2
Формат : AC-3
Формат/Информация : Audio Coding 3
Коммерческое название : Dolby Digital
Идентификатор кодека : A_AC3
Продолжительность : 47 м. 37 с.
Вид битрейта : Постоянный
Битрейт : 192 Кбит/сек
Каналы : 2 канала
Channel layout : L R
Частота : 48,0 КГц
Частота кадров : 31,250 кадров/сек (1536 SPF)
Битовая глубина : 16 бит
Метод сжатия : С потерями
Размер потока : 65,4 Мбайт (10%)
ServiceKind/String : Complete Main
Default : Да
Forced : Нет

pb.wtf



Скачать Роза и чертополох через торрент http://pic1.kartinco.top/images/11/hhbt4.jpg Скачать фильм Роза и чертополох через торрент бесплантно в хорошем качестве Описание: После измены мужа Ольга готова бросить Михаила. Но он попадает в аварию, и Ольга соглашается дать их отношениям последний шанс. ... 10 10 3
Торрент: Зарегистрирован [2018-09-08 14:37] · скачан: 115 раз
Статус: √ проверено
Размер: 1.22 GB
Как cкачать? Как скачать Роза и чертополох через торрент | qTorrent

28-11-2019 20:33  

Отключить всю рекламу на сайте

    Дорогой пользователь! Огромная просьба, поблагодарите релизера, оцените раздачу и оставьте свои комментарий, если Вы скачали Роза и чертополох через торрент бесплатно! Внесите свою лепту в развитие PiratBit!
    Комментировать посты могут только пользователи прошедшие не сложную регистрацию
    Показать сообщения:    

    Роза и чертополох через торрент
    Скачать бесплатно Роза и чертополох
    Роза и чертополох скачать торрент
    Роза и чертополох смотреть онлайн
    Cкачать фильм Роза и чертополох бесплатно
    Роза и чертополох скачать торрент в хорошем качестве
    Роза и чертополох смотреть онлайн бесплатно в хорошем качестве


    Вы не можете начинать темы
    Вы не можете отвечать на сообщения
    Вы не можете редактировать свои сообщения
    Вы не можете удалять свои сообщения
    Вы не можете голосовать в опросах
    Вы не можете прикреплять файлы к сообщениям
    Вы можете скачивать файлы