Ссылка на приватное зеркало нашего сайта всего за 1$. Внимание количество ограничено!!!

2 сезон

iTunes

1 сезон

1

2 сезон

2 сезон

iTunes

1 сезон

RePack

30

Новинка

ВАЖНО

ИГРА 18+

pack

RePack

MK11
pack

Забери бонус

RePack

jed

!!Акция!!

Alien_Rage

RePack

fifa19

RePack

Assassins Creed: Odyssey

RePack

NEED FOR SPEED™ PAYBACK

4 сезон

9 сезон

Бесстыжие 9 сезон

Все сериалы

все сериалы на PB.wtf

RePack

FAR CRY 5
  

Опасная игра Слоун / Мисс Слоун / Miss Sloane (Джон Мэдден) [2016, Триллер, драма, Blu-Ray Remux 1080p] [DUB] [iTunes] pb.wtf

Опасная игра Слоун через торрент pb.wtf

Размер: 33.81 GB | Добавлен: 2 года 2 мес. назад | Торрент скачан:53 раза
Скачать  

08-09-2018 15:36 Опасная игра Слоун Скачать торрент  

Опасная игра Слоун / Мисс Слоун / Miss Sloane
Год выпуска: 2016
Жанр: Триллер, драма
Выпущено: Великобритания, США, Франция, Archery Pictures, FilmNation Entertainment, Transfilm
Продолжительность: 02:12:11
Перевод: Дублированный [iTunes]
Субтитры: Русские, английские

Режиссер: Джон Мэдден

В ролях: Джессика Честейн, Гугу Эмбата-Ро, Марк Стронг, Джон Литгоу, Элисон Пилл, Майкл Стулбарг, Джейк Лэси, Сэм Уотерстон, Дуглас Смит, Дилан Бэйкер

Описание: Элизабет Слоун — самый востребованный и рисковый лоббист и самая сексуальная акула политического бизнеса США. Ловко ведя психологические игры и используя искусство манипуляции, она сражает оппонентов своей непредсказуемостью и никогда не проигрывает. Но когда она берется за самое сложное в своей карьере дело, она понимает, что цена победы может быть слишком высокой.

rating

Качество: Blu-Ray Remux (1080p)
Формат: MKV
Видео: MPEG-4 AVC, 32900 Кбит/с, 1920х1080, 23.976 Кадр/c
Звук 1: 48 kHz, AC3 Dolby Digital, 6 ch, ~384 kbps - DUB
Звук 2: 48 kHz, DTS-HD MA, 6 ch, ~3335 kbps - Eng
General
Unique ID : 17836833095632472957661754905798146096 (0xD6B3FC4D56362C68CE8EE31B04C7830)
Complete name : D:Miss.Sloane.2016.bdremuX.108Op.werecut.PROD.mkv
Format : Matroska
Format version : Version 4 / Version 2
File size : 33.8 GiB
Duration : 2 h 12 min
Overall bit rate mode : Variable
Overall bit rate : 36.6 Mb/s
Movie name : Miss Sloane 2016 OT werecut PROD.
Encoded date : UTC 2018-09-08 14:44:37
Writing application : mkvmerge v24.0.0 ('Beyond The Pale') 64-bit
Writing library : libebml v1.3.6 + libmatroska v1.4.9

Video
ID : 1
Format : AVC
Format/Info : Advanced Video Codec
Format profile : High@L4.1
Format settings : CABAC / 4 Ref Frames
Format settings, CABAC : Yes
Format settings, ReFrames : 4 frames
Codec ID : V_MPEG4/ISO/AVC
Duration : 2 h 12 min
Bit rate mode : Variable
Bit rate : 32.9 Mb/s
Maximum bit rate : 36.0 Mb/s
Width : 1 920 pixels
Height : 1 080 pixels
Display aspect ratio : 16:9
Frame rate mode : Constant
Frame rate : 23.976 (24000/1001) FPS
Color space : YUV
Chroma subsampling : 4:2:0
Bit depth : 8 bits
Scan type : Progressive
Bits/(Pixel*Frame) : 0.662
Stream size : 30.4 GiB (90%)
Language : English
Default : Yes
Forced : No

Audio #1
ID : 2
Format : AC-3
Format/Info : Audio Coding 3
Commercial name : Dolby Digital
Codec ID : A_AC3
Duration : 2 h 12 min
Bit rate mode : Constant
Bit rate : 384 kb/s
Channel(s) : 6 channels
Channel layout : L R C LFE Ls Rs
Sampling rate : 48.0 kHz
Frame rate : 31.250 FPS (1536 SPF)
Bit depth : 16 bits
Compression mode : Lossy
Stream size : 363 MiB (1%)
Language : Russian
Service kind : Complete Main
Default : Yes
Forced : Yes

Audio #2
ID : 3
Format : DTS XLL
Format/Info : Digital Theater Systems
Commercial name : DTS-HD Master Audio
Codec ID : A_DTS
Duration : 2 h 12 min
Bit rate mode : Variable
Bit rate : 3 335 kb/s
Channel(s) : 6 channels
Channel layout : C L R Ls Rs LFE
Sampling rate : 48.0 kHz
Frame rate : 93.750 FPS (512 SPF)
Bit depth : 24 bits
Compression mode : Lossless
Stream size : 3.08 GiB (9%)
Language : English
Default : No
Forced : No

Text #1
ID : 4
Format : UTF-8
Codec ID : S_TEXT/UTF8
Codec ID/Info : UTF-8 Plain Text
Duration : 2 h 6 min
Bit rate : 177 b/s
Count of elements : 1667
Stream size : 164 KiB (0%)
Language : Russian
Default : No
Forced : No

Text #2
ID : 5
Format : UTF-8
Codec ID : S_TEXT/UTF8
Codec ID/Info : UTF-8 Plain Text
Duration : 2 h 7 min
Bit rate : 93 b/s
Count of elements : 2636
Stream size : 86.7 KiB (0%)
Language : English
Default : No
Forced : No

Menu
00:00:00.000 : en:00:00:00.000
00:03:17.572 : en:00:03:17.572
00:10:01.810 : en:00:10:01.810
00:14:33.331 : en:00:14:33.331
00:21:39.632 : en:00:21:39.632
00:27:24.601 : en:00:27:24.601
00:30:24.614 : en:00:30:24.614
00:35:40.597 : en:00:35:40.597
00:40:37.018 : en:00:40:37.018
00:45:36.651 : en:00:45:36.651
00:50:08.130 : en:00:50:08.130
00:56:55.662 : en:00:56:55.662
01:01:31.146 : en:01:01:31.146
01:05:00.563 : en:01:05:00.563
01:10:10.415 : en:01:10:10.415
01:15:56.552 : en:01:15:56.552
01:22:25.399 : en:01:22:25.399
01:31:17.097 : en:01:31:17.097
01:35:47.825 : en:01:35:47.825
01:41:48.436 : en:01:41:48.436
01:45:25.653 : en:01:45:25.653
01:54:30.781 : en:01:54:30.781
02:03:40.288 : en:02:03:40.288
02:08:02.008 : en:02:08:02.008
скриншот  скриншот  скриншот  
pb.wtf



Скачать Опасная игра Слоун через торрент https://i101.fastpic.ru/big/2018/0806/71/88d34db798f31e51d8f00d5da9d89471.jpg Скачать фильм Опасная игра Слоун через торрент бесплантно в хорошем качестве Описание: Элизабет Слоун — самый востребованный и рисковый лоббист и самая сексуальная акула политического бизнеса США. Ловко ведя ... 10 10 2
Info! Золотая раздача, скачанное не засчитывается.
Торрент: Зарегистрирован [2018-09-08 15:36] · скачан: 53 раз
Статус: √ проверено
Размер: 33.81 GB
Как cкачать? Как скачать Опасная игра Слоун через торрент | qTorrent

% Раздел Тема Автор DL S | L
Фильмы 2016 [DVDrip, WEB-DLRip, HDrip] (DUB, MVO) [ 2.12 GB ] Опасная игра Слоун / Мисс Слоун / Miss Sloane [2016 BDRip] - Twi7ter Скачать
2 | 0
Фильмы [HD 720p, 1080p] (Хороший звук DUB, MVO) [ 7.08 GB ] Опасная игра Слоун / Мисс Слоун / Miss Sloane [2016 BDRip 720p] MVO bober100 Скачать
1 | 0
Фильмы [HD 720p, 1080p] (Хороший звук DUB, MVO) [ 15.5 GB ] Опасная игра Слоун / Мисс Слоун / Miss Sloane [2016 BDRip 1080p] killermax2013 Скачать
1 | 0
Фильмы 2016 [DVDrip, WEB-DLRip, HDrip] (DUB, MVO) [ 1.46 GB ] Опасная игра Слоун / Мисс Слоун / Miss Sloane [2016 BDRip] - Twi7ter Скачать
1 | 0
Фильмы 2016 [DVDrip, WEB-DLRip, HDrip] (DUB, MVO) [ 2.48 GB ] Опасная игра Слоун / Мисс Слоун / Miss Sloane [2016 BDRip-AVC] Dub - ExKinoRay Enigma2010 Скачать
1 | 0
Фильмы 2016 [DVDrip, WEB-DLRip, HDrip] (DUB, MVO) [ 2.12 GB ] Опасная игра Слоун / Мисс Слоун / Miss Sloane [2016 BDRip] -Lexx- Скачать
1 | 0
Фильмы [HD 720p, 1080p] (Хороший звук DUB, MVO) [ 17.16 GB ] Опасная игра Слоун / Мисс Слоун / Miss Sloane [2016 BDRip 1080p] MVO ['СВ-Студия'] bober100 Скачать
1 | 0

28-11-2019 20:33  

Отключить всю рекламу на сайте

    Дорогой пользователь! Огромная просьба, поблагодарите релизера, оцените раздачу и оставьте свои комментарий, если Вы скачали Опасная игра Слоун через торрент бесплатно! Внесите свою лепту в развитие PiratBit!
    Комментировать посты могут только пользователи прошедшие не сложную регистрацию
    Показать сообщения:    

    Опасная игра Слоун через торрент
    Скачать бесплатно Опасная игра Слоун
    Опасная игра Слоун скачать торрент
    Опасная игра Слоун смотреть онлайн
    Cкачать фильм Опасная игра Слоун бесплатно
    Опасная игра Слоун скачать торрент в хорошем качестве
    Опасная игра Слоун смотреть онлайн бесплатно в хорошем качестве


    Вы не можете начинать темы
    Вы не можете отвечать на сообщения
    Вы не можете редактировать свои сообщения
    Вы не можете удалять свои сообщения
    Вы не можете голосовать в опросах
    Вы не можете прикреплять файлы к сообщениям
    Вы можете скачивать файлы