новый адрес
Ссылка на приватное зеркало всего за 1$. Внимание количество ограничено!!!

iTunes

1+1

iTunes

мы

WEB-DL

1

iTunes

Чернобыль

iTunes

Ральф против интернета

Лицензия

ПШазам

Лицензия

Оно 2

Лицензия

30
pack

Вам бонус

ВАЖНО

!!Акция!!

Alien_RageХит недели

RePack

Resident Evil 21

ИГРА 18+

pack

RePack

jed

!!Акция!!

Alien_Rage

RePack

fifa19

RePack

Assassins Creed: Odyssey

RePack

NEED FOR SPEED™ PAYBACK

3 сезон

9 сезон

Бесстыжие 9 сезон

Все сериалы

все сериалы на PB.wtf

RePack

FAR CRY 5
Ребята, катастрофически не хватает 1900р. для оплаты серверов за Октябрь (всвязи с блокировками трафик упал в 3 раза), 1-2р., выручайте.
  

Мир Юрского периода 2 / Jurassic World: Fallen Kingdom (Хуан Антонио Байона) [2018 г., фантастика, боевик, приключения, HDRip, Дубляж."iTunes"] pb.wtf

Мир Юрского периода 2 через торрент pb.wtf

Раздают: 1 [ 0 KB/s ]
Размер: 768 MB | Добавлен: 1 год 2 мес. назад | Торрент скачан:309 раз
Скачать  

08-09-2018 18:36 Мир Юрского периода 2 Скачать торрент  

Мир Юрского периода 2 / Jurassic World: Fallen Kingdom
Год выпуска: 2018
Страна: США / Amblin Entertainment,Legendary Entertainment,Perfect World Pictures
Жанр: фантастика, боевик, приключения
Продолжительность: 02:08:17
Перевод: Дубляж (iTunes)

Режиссер: Хуан Антонио Байона

rating

В ролях: Крис Пратт, Брайс Даллас Ховард, Рейф Сполл, Джастис Смит, Даниэлла Пинеда, Джеймс Кромуэлл, Тоби Джонс, Тед Левайн, Джефф Голдблюм, Б.Д. Вонг

Описание: На острове Нублар, где не так давно располагался парк развлечений с динозаврами, правит бал дикая природа. Но без людей все далеко не так спокойно, как могло бы показаться. Основатели парка приняли решение построить его, несмотря на активный вулкан, расположенный в сердце острова. Вулкан пробудился и рискует утопить остров в лаве. Управляющая парком Клэр Дэринг уговаривает дрессировщика Оуэна Грэди вернуться в бывший парк и спасти динозавров от неминуемой гибели.

Качество: HDRip
Формат: AVI
Видео кодек: XviD
Аудио кодек: MP3
Видео: 640x272 (2.35:1), 23.976 fps, XviD build 50 ~699 kbps avg, 0.17 bit/pixel
Аудио#1==: 48 kHz, MPEG Layer 3, 2 ch, ~128.00 kbps avg
скриншот   скриншот   скриншот   скриншот  

Общее
Полное имя : F:\ФИЛЬМЫ\Мир Юрского периода 2.2018.HDRip.avi
Формат : AVI
Формат/Информация : Audio Video Interleave
Размер файла : 768 Мбайт
Продолжительность : 2 ч. 8 м.
Общий поток : 837 Кбит/сек
Программа кодирования : VirtualDubMod 1.5.10.3 | www.virtualdub-fr.org || (build 2550/release)
Библиотека кодирования : VirtualDubMod build 2550/release

Видео
Идентификатор : 0
Формат : MPEG-4 Visual
Профиль формата : Advanced Simple@L5
Настройки формата : BVOP2
Параметр BVOP формата : 2
Параметр QPel формата : Нет
Параметр GMC формата : Без точки перехода
Параметр матрицы формата : Default (MPEG)
Идентификатор кодека : XVID
Идентификатор кодека/Подсказка : XviD
Продолжительность : 2 ч. 8 м.
Битрейт : 699 Кбит/сек
Ширина : 640 пикселей
Высота : 272 пикселя
Соотношение сторон : 2,35:1
Частота кадров : 23,976 (24000/1001) кадра/сек
Цветовое пространство : YUV
Субдискретизация насыщенности : 4:2:0
Битовая глубина : 8 бит
Тип развёртки : Прогрессивная
Метод сжатия : С потерями
Бит/(Пиксели*Кадры) : 0.168
Размер потока : 642 Мбайт (84%)
Библиотека кодирования : XviD 1.2.1 (UTC 2008-12-04)

Аудио
Идентификатор : 1
Формат : MPEG Audio
Версия формата : Version 1
Профиль формата : Layer 3
Настройки формата : Joint stereo / MS Stereo
Идентификатор кодека : 55
Идентификатор кодека/Подсказка : MP3
Продолжительность : 2 ч. 8 м.
Вид битрейта : Постоянный
Битрейт : 128 Кбит/сек
Каналы : 2 канала
Частота : 48,0 КГц
Частота кадров : 41,667 кадра/сек (1152 SPF)
Метод сжатия : С потерями
Размер потока : 117 Мбайт (15%)
Выравнивание : Соединение по промежуткам
Продолжительность промежутка : 42 мс. (1,00 видеокадр)
Время предзагрузки промежутка : 504 мс.
Библиотека кодирования : LAME3.99r
Настройки программы : -m j -V 4 -q 2 -lowpass 17 -b 128

pb.wtf



Скачать Мир Юрского периода 2 через торрент http://pic1.kartinco.top/images/11/9vwq1.jpg Скачать фильм Мир Юрского периода 2 через торрент бесплантно в хорошем качестве Описание: На острове Нублар, где не так давно располагался парк развлечений с динозаврами, правит бал дикая природа. Но без людей все ... 10 10 14
Info! Золотая раздача, скачанное не засчитывается.
Торрент: Зарегистрирован [2018-09-08 18:36] · скачан: 309 раз
Статус: √ проверено
Размер: 768 MB
Как cкачать? Как скачать Мир Юрского периода 2 через торрент | qTorrent

% Раздел Тема Автор DL S | L
Фильмы [HD 720p, 1080p] (Хороший звук DUB, MVO) [ 5.4 GB ] Мир Юрского периода 2 / Jurassic World: Fallen Kingdom [2018 BDRip 1080p HEVC ()] Мичман37 Скачать
1 | 0
Ultra HD (UHD: 2K, 4K, 8K) — видео сверхвысокой чёткости [ 77.49 GB ] Мир Юрского периода 2 / Jurassic World: Fallen Kingdom [2018 UHD Blu-Ray 2160p] DUB [Dolby Vision] sheker187 Скачать
1 | 0
Фильмы (HD 720p, 1080p) (48-60 fps) [ 10.62 GB ] Мир Юрского периода 2 / Jurassic World: Fallen Kingdom [2018 BDRip 1080p 60 fps] DUB [] bober100 Скачать
6 | 0
Фильмы (Blu-ray, BD-Remux, HDDVD) [ 41.63 GB ] Мир Юрского периода 2 / Jurassic World: Fallen Kingdom [2018 Blu-ray EUR 1080p] DUB [] bober100 Скачать
1 | 0
3D Фильмы [ 10.8 GB ] Мир Юрского периода 2 в 3Д / Jurassic World: Fallen Kingdom 3D [2018 BDRip 1080p] DUB Half OverUnder sheker187 Скачать
4 | 0
Ultra HD (UHD: 2K, 4K, 8K) — видео сверхвысокой чёткости [ 77.18 GB ] Мир Юрского периода 2 / Jurassic World: Fallen Kingdom [2018 UHD Blu-Ray 2160p] DUB [HDR + Dolby Vision] sheker187 Скачать
1 | 0
Ultra HD (UHD: 2K, 4K, 8K) — видео сверхвысокой чёткости [ 45.3 GB ] Мир Юрского периода 2 / Jurassic World: Fallen Kingdom [2018 UHD BDRemux 2160p] DUB [] sheker187 Скачать
1 | 0

28-11-2019 20:33  

Отключить всю рекламу на сайте

15-10-2018 18:36 Мир Юрского периода 2 Скачать торрент  

и на черта такому фильму золото?pb.wtf



    Дорогой пользователь! Огромная просьба, поблагодарите релизера, оцените раздачу и оставьте свои комментарий, если Вы скачали Мир Юрского периода 2 через торрент бесплатно! Внесите свою лепту в развитие PiratBit!
    Комментировать посты могут только пользователи прошедшие не сложную регистрацию
    Показать сообщения:    

    Мир Юрского периода 2 через торрент
    Скачать бесплатно Мир Юрского периода 2
    Мир Юрского периода 2 скачать торрент
    Мир Юрского периода 2 смотреть онлайн
    Cкачать фильм Мир Юрского периода 2 бесплатно
    Мир Юрского периода 2 скачать торрент в хорошем качестве
    Мир Юрского периода 2 смотреть онлайн бесплатно в хорошем качестве


    Вы не можете начинать темы
    Вы не можете отвечать на сообщения
    Вы не можете редактировать свои сообщения
    Вы не можете удалять свои сообщения
    Вы не можете голосовать в опросах
    Вы не можете прикреплять файлы к сообщениям
    Вы можете скачивать файлы