Ссылка на приватное зеркало нашего сайта всего за 1$. Внимание количество ограничено!!!

2 сезон

iTunes

1 сезон

1

iTunes

iTunes

iTunes

1 сезон

RePack

30

ИГРА 18+

pack

ВАЖНО

!!Акция!!

Alien_RageХит недели

RePack

MK11
pack

Забери бонус

RePack

jed

!!Акция!!

Alien_Rage

RePack

fifa19

RePack

Assassins Creed: Odyssey

RePack

NEED FOR SPEED™ PAYBACK

4 сезон

9 сезон

Бесстыжие 9 сезон

Все сериалы

все сериалы на PB.wtf

RePack

FAR CRY 5
  

Взаперти / Shut In (Фэррен Блэкберн / Farren Blackburn) [2016, Ужасы, триллер, драма, DVD9] [MVO] [Лицензия R5] pb.wtf

Взаперти через торрент pb.wtf

Размер: 6.01 GB | Добавлен: 2 года 1 мес. назад | Торрент скачан:11 раз
Скачать  

08-09-2018 19:36 Взаперти Скачать торрент  

Взаперти / Shut In«Don't believe everything you see» Страна: Франция, Канада, США
Студии: Universum Film, EuropaCorp, Lava Bear Films, Transfilm, Canal+ [fr], Ciné, OCS
Жанр: Ужасы, триллер, драма
Год выпуска: 2016
Продолжительность: 01:27:57
Перевод: Профессиональный (многоголосый закадровый) [Лицензия]

Субтитры: Нет

Режиссер: Фэррен Блэкберн / Farren Blackburn
Продюсеры: Кристин Хеблер, Ариэль Зейтун, Триш Долмэн

Актеры: Наоми Уоттс, Оливер Платт, Чарли Хитон, Джейкоб Тремблей, Клементин Пуадац, Алекс Браунштейн, Дэвид Кабитт, Кристал Балинт, Эллен Дэвид, Тим Пост

Описание:
Главная героиня — детский психолог и овдовевшая женщина, которая ныне живет в уединении в сельском районе Новой Англии. Во время яростной зимней бури ей предстоит спасать мальчика, оказавшегося в смертельной опасности.



Качество: DVD9 R5
Формат: DVD-Video
Видео: MPEG-2, 720x576@1024x576 (PAL 16:9), ~6300 Кбит/сек
Аудио: AC3 5.1, 448 Кбит/сек [Русский - многоголосый закадровый]

Доп. материалы: Анонсы, Создатели фильма рассказывают о персонажах и о работе над фильмом
Title: Shut In (2016) DVD9 R5
Size: 6.01 Gb ( 6 303 032,00 KBytes ) - DVD-9
Enabled regions: 1, 2, 3, 4, 5, 6, 7, 8

VTS_01 :
Play Length: 00:00:15
Video: PAL 4:3 (720x576) VBR
Audio:
Not specified (Dolby AC3, 2 ch)

VTS_02 :
Play Length: 00:00:05
Video: PAL 16:9 (720x576) VBR, Auto Letterboxed
Audio:
Not specified (Dolby AC3, 2 ch)

VTS_03 :
Play Length: 00:01:33
Video: PAL 16:9 (720x576) VBR, Auto Letterboxed
Audio:
Not specified (Dolby AC3, 2 ch)

VTS_04 :
Play Length: 00:02:20
Video: PAL 16:9 (720x576) VBR, Auto Letterboxed
Audio:
Not specified (Dolby AC3, 2 ch)

VTS_05 :
Play Length: 00:02:01
Video: PAL 16:9 (720x576) VBR, Auto Letterboxed
Audio:
Not specified (Dolby AC3, 2 ch)

VTS_06 :
Play Length: 00:01:03
Video: PAL 16:9 (720x576) VBR, Auto Letterboxed
Audio:
Not specified (Dolby AC3, 2 ch)

VTS_07 :
Play Length: 00:02:12
Video: PAL 16:9 (720x576) VBR, Auto Letterboxed
Audio:
Not specified (Dolby AC3, 2 ch)

VTS_08 :
Play Length: 01:27:57
Video: PAL 16:9 (720x576) VBR, Auto Letterboxed
Audio:
Russian, AC3, 3/2 (L,C,R,SL,SR)+LFE ch, 448 kbps, Delay 0 mSec

VTS_09 :
Play Length: 00:00:01
Video: PAL 16:9 (720x576) VBR, Auto Letterboxed
Audio:
Russian (Dolby AC3, 2 ch)
Not specified (Dolby AC3, 2 ch)
Subtitles:
Russian

VTS_10 :
Play Length: 00:28:43
Video: PAL 16:9 (720x576) VBR, Auto Letterboxed
Audio:
Russian (Dolby AC3, 2 ch)
Общее
Полное имя : G:\Torrents\Shut In (2016) DVD9 R5\VIDEO_TS\VTS_08_1.VOB
Формат : MPEG-PS
Размер файла : 1000 Мбайт
Продолжительность : 20 м. 21 с.
Режим общего битрейта : Переменный
Общий поток : 6869 Кбит/сек

Видео
Идентификатор : 224 (0xE0)
Формат : MPEG Video
Версия формата : Version 2
Профиль формата : Main@Main
Настройки формата : BVOP
Параметр BVOP формата : Да
Параметр матрицы формата : По умолчанию
Параметр GOP формата : M=3, N=12
Продолжительность : 20 м. 21 с.
Вид битрейта : Переменный
Битрейт : 6284 Кбит/сек
Максимальный битрейт : 9000 Кбит/сек
Ширина : 720 пикселей
Высота : 576 пикселей
Соотношение сторон : 16:9
Частота кадров : 25,000 кадров/сек
Стандарт вещания : PAL
Цветовое пространство : YUV
Субдискретизация насыщенности : 4:2:0
Битовая глубина : 8 бит
Тип развёртки : Прогрессивная
Метод сжатия : С потерями
Бит/(Пиксели*Кадры) : 0.606
Временной код первого кадра : 00:00:00:00
Оригинал временного кода : Group of pictures header
GOP, открыто/закрыто : Открыто
GOP, открыто/закрыто на первом кадре : Закрыто
Размер потока : 915 Мбайт (91%)

Аудио
Идентификатор : 189 (0xBD)-128 (0x80)
Формат : AC-3
Формат/Информация : Audio Coding 3
Параметр Endianness формата : Big
Режим смешивания : DVD-Video
Продолжительность : 20 м. 20 с.
Вид битрейта : Постоянный
Битрейт : 448 Кбит/сек
Каналы : 6 каналов
Расположение каналов : Front: L C R, Side: L R, LFE
Частота : 48,0 КГц
Частота кадров : 31,250 кадров/сек (1536 SPF)
Битовая глубина : 16 бит
Метод сжатия : С потерями
Размер потока : 65,2 Мбайт (7%)
ServiceKind/String : Complete Main

Меню
скриншот  скриншот  скриншот  
скриншот  скриншот  скриншот  
скриншот  скриншот  скриншот  
pb.wtf



Скачать Взаперти через торрент https://b.radikal.ru/b36/1807/e1/5e8536368bb4.jpg Скачать фильм Взаперти через торрент бесплантно в хорошем качестве Описание:Главная героиня — детский психолог и овдовевшая женщина, которая ныне живет в уединении в сельском районе Новой Англии. Во время ... 10 10 2
Торрент: Зарегистрирован [2018-09-08 19:36] · скачан: 11 раз
Статус: √ проверено
Размер: 6.01 GB
Как cкачать? Как скачать Взаперти через торрент | qTorrent

% Раздел Тема Автор DL S | L
T Фильмы [HD 720p, 1080p] (Хороший звук DUB, MVO) [ 6.84 GB ] Взаперти / Shut In [2016 BDRip 1080p] MVO [ R5 ] bober100 Скачать
1 | 0
Фильмы 2016 [DVDrip, WEB-DLRip, HDrip] (DUB, MVO) [ 1.36 GB ] Взаперти / Shut In [2016 BDRip-AVC] MVO [ R5 ] bober100 Скачать
1 | 0
Фильмы 2016 [DVDrip, WEB-DLRip, HDrip] (DUB, MVO) [ 1.46 GB ] Взаперти / Shut In [2016 BDRip] MVO [] Twi7ter Скачать
1 | 0

28-11-2019 20:33  

Отключить всю рекламу на сайте

    Дорогой пользователь! Огромная просьба, поблагодарите релизера, оцените раздачу и оставьте свои комментарий, если Вы скачали Взаперти через торрент бесплатно! Внесите свою лепту в развитие PiratBit!
    Комментировать посты могут только пользователи прошедшие не сложную регистрацию
    Показать сообщения:    

    Взаперти через торрент
    Скачать бесплатно Взаперти
    Взаперти скачать торрент
    Взаперти смотреть онлайн
    Cкачать фильм Взаперти бесплатно
    Взаперти скачать торрент в хорошем качестве
    Взаперти смотреть онлайн бесплатно в хорошем качестве


    Вы не можете начинать темы
    Вы не можете отвечать на сообщения
    Вы не можете редактировать свои сообщения
    Вы не можете удалять свои сообщения
    Вы не можете голосовать в опросах
    Вы не можете прикреплять файлы к сообщениям
    Вы можете скачивать файлы