Ссылка на приватное зеркало всего за 1$. Внимание количество ограничено!!!

OK

1+1

iTunes

мы

OK

1

WEB-DLRip

Джокер

Пифагор

Ведьмак / The Witcher сериал

iTunes

ПШазам

ОК

Оно 2

iTunes

30
pack

Вам бонус

ВАЖНО

!!Акция!!

Alien_RageХит недели

RePack

Resident Evil 21

ИГРА 18+

pack

RePack

jed

RePack

fifa19

RePack

Assassins Creed: Odyssey

RePack

NEED FOR SPEED™ PAYBACK

4 сезон

9 сезон

Бесстыжие 9 сезон

Все сериалы

все сериалы на PB.wtf

RePack

FAR CRY 5
  

Тик-так / Jing tian da ni zhuan (Ли Цзунь) [2016 г., Криминал, детектив, триллер, WEB-DLRip, Любительский (многоголосый)] [Синема УС] pb.wtf

Тик-так через торрент pb.wtf

Качают: 1 [ 0 KB/s ]
Размер: 1.46 GB | Добавлен: 1 год 4 мес. назад | Торрент скачан:38 раз
Скачать  

09-09-2018 06:38 Тик-так Скачать торрент  

Тик-так / Jing tian da ni zhuan
Год выпуска: 2016
Страна: Китай
Жанр: Криминал, детектив, триллер
Продолжительность: 01:48:41
Перевод: Любительский (многоголосый) | Синема УС
Субтитры: Отсутствуют

Режиссер: Ли Цзунь

rating

В ролях: Ли Джон-джэ, Уоллес Чун, Лан Юэтин, Ли Чхэ-ён, Фань Ян, Элиза Цзянь, Цуй Лумэн

Описание: Го Чжида обожает взрывы. Он сам мастерит взрывные устройства и закладывает их в самых различных местах по всему городу. Вместе со своим братом он ставит очередное смертельное устройство неподалеку от спортивного центра. Если бомба взорвется, пострадает множество ни в чем не повинных людей. Поэтому следует обезвредить ее прежде, чем произойдет непоправимое. Капитан полиции Янг обладает хорошими навыками в области психологии. Он пытается понять ход мыслей Чжида. Но времени для поиска бомба у него остается все меньше с каждой секундой...

Качество: WEB-DLRip
Формат: AVI
Видео кодек: XviD
Аудио кодек: AC3
Видео: XviD, 720x304 , 23.9fps, 1718 Kbps
Аудио#1: AC3 , 2 ch , 48 kHz , 192 kbps
скриншот   скриншот   скриншот   скриншот   скриншот   скриншот   скриншот   скриншот  

Общее
Полное имя : D:tik.tok.2016.P.WEB-DLRip.14OOMB_KOSHARA.avi
Формат : AVI
Формат/Информация : Audio Video Interleave
Размер файла : 1,46 Гбайт
Продолжительность : 1 ч. 48 м.
Общий поток : 1919 Кбит/сек
Программа кодирования : VirtualDubMod 1.5.10.2 (build 2540/release)
Библиотека кодирования : VirtualDubMod build 2540/release

Видео
Идентификатор : 0
Формат : MPEG-4 Visual
Профиль формата : Advanced Simple@L5
Параметр BVOP формата : 2
Параметр QPel формата : Нет
Параметр GMC формата : Без точки перехода
Параметр матрицы формата : Default (MPEG)
Идентификатор кодека : XVID
Идентификатор кодека/Подсказка : XviD
Продолжительность : 1 ч. 48 м.
Битрейт : 1718 Кбит/сек
Ширина : 720 пикселей
Высота : 304 пикселя
Соотношение сторон : 2,35:1
Частота кадров : 23,976 кадра/сек
Цветовое пространство : YUV
Субдискретизация насыщенности : 4:2:0
Битовая глубина : 8 бит
Тип развёртки : Прогрессивная
Метод сжатия : С потерями
Бит/(Пиксели*Кадры) : 0.327
Размер потока : 1,30 Гбайт (90%)
Библиотека кодирования : XviD 1.2.1 (UTC 2008-12-04)

Аудио
Идентификатор : 1
Формат : AC-3
Формат/Информация : Audio Coding 3
Расширение режима : CM (complete main)
Параметр Endianness формата : Big
Идентификатор кодека : 2000
Продолжительность : 1 ч. 48 м.
Вид битрейта : Постоянный
Битрейт : 192 Кбит/сек
Каналы : 2 канала
Расположение каналов : Front: L R
Частота : 48,0 КГц
Битовая глубина : 16 бит
Метод сжатия : С потерями
Размер потока : 149 Мбайт (10%)
Выравнивание : Разделение по промежуткам
Продолжительность промежутка : 42 мс. (1,00 видеокадр)
Время предзагрузки промежутка : 500 мс.

pb.wtf



Скачать Тик-так через торрент http://pic1.kartinco.top/images/11/1gqu3.jpg Скачать фильм Тик-так через торрент бесплантно в хорошем качестве Описание: Го Чжида обожает взрывы. Он сам мастерит взрывные устройства и закладывает их в самых различных местах по всему городу. Вместе со ... 6.8 10 6
Торрент: Зарегистрирован [2018-09-09 06:38] · скачан: 38 раз
Статус: T временная
Размер: 1.46 GB
Как cкачать? Как скачать Тик-так через торрент | qTorrent

28-11-2019 20:33  

Отключить всю рекламу на сайте

    Дорогой пользователь! Огромная просьба, поблагодарите релизера, оцените раздачу и оставьте свои комментарий, если Вы скачали Тик-так через торрент бесплатно! Внесите свою лепту в развитие PiratBit!
    Комментировать посты могут только пользователи прошедшие не сложную регистрацию
    Показать сообщения:    

    Тик-так через торрент
    Скачать бесплатно Тик-так
    Тик-так скачать торрент
    Тик-так смотреть онлайн
    Cкачать фильм Тик-так бесплатно
    Тик-так скачать торрент в хорошем качестве
    Тик-так смотреть онлайн бесплатно в хорошем качестве


    Вы не можете начинать темы
    Вы не можете отвечать на сообщения
    Вы не можете редактировать свои сообщения
    Вы не можете удалять свои сообщения
    Вы не можете голосовать в опросах
    Вы не можете прикреплять файлы к сообщениям
    Вы можете скачивать файлы