Ссылка на приватное зеркало нашего сайта всего за 1$. Внимание количество ограничено!!!

2 сезон

iTunes

1 сезон

1

iTunes

iTunes

iTunes

1 сезон

RePack

30

ИГРА 18+

pack

ВАЖНО

!!Акция!!

Alien_RageХит недели

RePack

MK11
pack

Забери бонус

RePack

jed

!!Акция!!

Alien_Rage

RePack

fifa19

RePack

Assassins Creed: Odyssey

RePack

NEED FOR SPEED™ PAYBACK

4 сезон

9 сезон

Бесстыжие 9 сезон

Все сериалы

все сериалы на PB.wtf

RePack

FAR CRY 5
  

На качелях судьбы / Серии: 1-4 из 4 (Валерий Ибрагимов) [2018, Мелодрама, SATRip] pb.wtf

На качелях судьбы через торрент pb.wtf

Размер: 2.82 GB | Добавлен: 2 года 1 мес. назад | Торрент скачан:102 раза
Скачать  

09-09-2018 09:32 На качелях судьбы Скачать торрент  

На качелях судьбыГод выпуска: 2018
Страна: Россия
Жанр: Мелодрама
Продолжительность: x 00:52:00
Субтитры: отсутствуют

Режиссер: Валерий Ибрагимов



В ролях:

Евгения Лоза, Антон Батырев, Дмитрий Пчела, Лариса Удовиченко, Алёна Яковлева, Ева Шевченко-Головко

Описание:

У Катерины (Евгения Лоза) - хорошая семья: муж Алексей (Антон Батырев) и дочь Оксана. Однако счастье оказывается недолговечным. Она уличает Алексея в измене и сгоряча подает на развод. Попытки Алексея доказать свою невиновность и помириться ни к чему не приводят. По настоянию Кати он уходит из семьи, а затем, тяготясь разлукой с любимой женщиной и не менее любимой дочерью, уезжает на опасную работу в горы. Катя пытается начать жизнь с чистого листа. За ней ухаживает друг детства Феликс (Дмитрий Пчела), давно и безнадежно в нее влюбленный. Катя делает над собой усилие, чтобы забыть об Алексее, но скоро понимает, что это невозможно…

Качество: SATRip
Формат: AVI

Видео: XviD, ~ 1800 Кбит/с, 720x400
Аудио: MP3, 2 ch, 128 Кбит/с
скриншот  скриншот  скриншот  скриншот  

Общее
Полное имя : E:\Na.kachelyah.sudby.SATRip\Na.kachelyah.sudby.01.SATRip.avi
Формат : AVI
Формат/Информация : Audio Video Interleave
Размер файла : 725 Мбайт
Продолжительность : 52 м. 18 с.
Общий поток : 1938 Кбит/сек
Программа кодирования : VirtualDubMod 1.5.10.3 | www.virtualdub-fr.org || (build 2550/release)
Библиотека кодирования : VirtualDubMod build 2550/release

Видео
Идентификатор : 0
Формат : MPEG-4 Visual
Профиль формата : Advanced Simple@L5
Настройки формата : BVOP2
Параметр BVOP формата : 2
Параметр QPel формата : Нет
Параметр GMC формата : Без точки перехода
Параметр матрицы формата : Default (H.263)
Идентификатор кодека : XVID
Идентификатор кодека/Подсказка : XviD
Продолжительность : 52 м. 18 с.
Битрейт : 1800 Кбит/сек
Ширина : 720 пикселей
Высота : 400 пикселей
Соотношение сторон : 16:9
Частота кадров : 25,000 кадров/сек
Цветовое пространство : YUV
Субдискретизация насыщенности : 4:2:0
Битовая глубина : 8 бит
Тип развёртки : Прогрессивная
Метод сжатия : С потерями
Бит/(Пиксели*Кадры) : 0.250
Размер потока : 673 Мбайт (93%)
Библиотека кодирования : XviD 1.2.1 (UTC 2008-12-04)

Аудио
Идентификатор : 1
Формат : MPEG Audio
Версия формата : Version 1
Профиль формата : Layer 3
Настройки формата : Joint stereo / MS Stereo
Идентификатор кодека : 55
Идентификатор кодека/Подсказка : MP3
Продолжительность : 52 м. 18 с.
Вид битрейта : Постоянный
Битрейт : 128 Кбит/сек
Каналы : 2 канала
Частота : 48,0 КГц
Частота кадров : 41,667 кадра/сек (1152 SPF)
Метод сжатия : С потерями
Размер потока : 47,9 Мбайт (7%)
Выравнивание : Соединение по промежуткам
Продолжительность промежутка : 40 мс. (1,00 видеокадр)
Время предзагрузки промежутка : 504 мс.
Библиотека кодирования : LAME3.99r
Настройки программы : -m j -V 4 -q 9 -lowpass 17 -b 128

pb.wtf



Скачать На качелях судьбы через торрент http://kartinko.org/image_library/1/170336.jpg Скачать фильм На качелях судьбы через торрент бесплантно в хорошем качестве Описание: У Катерины (Евгения Лоза) - хорошая семья: муж Алексей (Антон Батырев) и дочь Оксана. Однако счастье оказывается недолговечным. ... 10 10 6
Торрент: Зарегистрирован [2018-09-09 09:32] · скачан: 102 раз
Статус: √ проверено
Размер: 2.82 GB
Как cкачать? Как скачать На качелях судьбы через торрент | qTorrent

28-11-2019 20:33  

Отключить всю рекламу на сайте

    Дорогой пользователь! Огромная просьба, поблагодарите релизера, оцените раздачу и оставьте свои комментарий, если Вы скачали На качелях судьбы через торрент бесплатно! Внесите свою лепту в развитие PiratBit!
    Комментировать посты могут только пользователи прошедшие не сложную регистрацию
    Показать сообщения:    

    На качелях судьбы через торрент
    Скачать бесплатно На качелях судьбы
    На качелях судьбы скачать торрент
    На качелях судьбы смотреть онлайн
    Cкачать фильм На качелях судьбы бесплатно
    На качелях судьбы скачать торрент в хорошем качестве
    На качелях судьбы смотреть онлайн бесплатно в хорошем качестве


    Вы не можете начинать темы
    Вы не можете отвечать на сообщения
    Вы не можете редактировать свои сообщения
    Вы не можете удалять свои сообщения
    Вы не можете голосовать в опросах
    Вы не можете прикреплять файлы к сообщениям
    Вы можете скачивать файлы