Ссылка на приватное зеркало нашего сайта всего за 1$. Внимание количество ограничено!!!

2 сезон

iTunes

1 сезон

1

2 сезон

2 сезон

iTunes

1 сезон

RePack

30

Ultimate

ВАЖНО

ИГРА 18+

pack

RePack

MK11
pack

Забери бонус

RePack

jed

!!Акция!!

Alien_Rage

RePack

fifa19

RePack

Assassins Creed: Odyssey

RePack

NEED FOR SPEED™ PAYBACK

4 сезон

9 сезон

Бесстыжие 9 сезон

Все сериалы

все сериалы на PB.wtf

RePack

FAR CRY 5
  

Джек Райан / Jack Ryan / Сезон: 1 / Серии: 1-8 из 8 (Патрисия Ригген, Дэниэл Сакхайм, Карлтон Кьюз) [2018, Боевик, триллер, драма, WEB-DL 1080p] MVO [Jaskier] pb.wtf

Джек Райан через торрент pb.wtf

Размер: 30.56 GB | Добавлен: 2 года 2 мес. назад | Торрент скачан:25 раз
Скачать  

09-09-2018 09:38 Джек Райан Скачать торрент  

Джек Райан / Jack Ryan
Год выпуска: 2018
Страна: США
Жанр: Боевик, триллер, драма
Продолжительность: ~ 00:55:00
Перевод: Профессиональный (многоголосый) | Jaskier
Субтитры: отсутствуют

Режиссер: Патрисия Ригген, Дэниэл Сакхайм, Карлтон Кьюз

rating

В ролях:

Джон Красински, Уенделл Пирс, Джон Хугенэккер, Эбби Корниш, Али Сулиман, Хааз Слейман, Эммануэль Люссье Мартинес, Йован Адепо

Описание:

Аналитик ЦРУ Джек Райан натыкается на подозрительную серию банковских переводов и начинает собственное расследование. Оно заставляет героя оставить безопасную офисную работу и включиться в смертельную игру кошки-мышки по всей Европе и на Ближнем Востоке с лидером террористов, готовящим массированную атаку на США и её союзников.

Качество: WEB-DL 1080p
Формат: MKV

Видео: X264, ~ 11000 kbps, 1920x1080 (16:9), 23.976 fps
Аудио#1: AC3, 48,0 КГц, 6 ch, 384 kbps - Rus
Аудио#2: AC3, 48,0 КГц, 6 ch, 384 kbps - Eng
скриншот  скриншот  скриншот  

Общее
Уникальный идентификатор : 111674754227340283951524321824588767461 (0x5403C67B5CA027235ECAD8DBE1F520E5)
Полное имя : E:\Jack.Ryan Season 1 (WEB-DL l 1080p l Jaskier)\Jack.Ryan.S01E01.WEB-DL.1080p.Jaskier.mkv
Формат : Matroska
Версия формата : Version 4 / Version 2
Размер файла : 5,40 Гбайт
Продолжительность : 1 ч. 4 м.
Режим общего битрейта : Переменный
Общий поток : 11,9 Мбит/сек
Дата кодирования : UTC 2018-09-09 09:13:45
Программа кодирования : mkvmerge v19.0.0 ('Brave Captain') 64-bit
Библиотека кодирования : libebml v1.3.5 + libmatroska v1.4.8

Видео
Идентификатор : 1
Формат : AVC
Формат/Информация : Advanced Video Codec
Профиль формата : High@L4
Настройки формата : CABAC / 4 Ref Frames
Параметр CABAC формата : Да
Параметр RefFrames формата : 4 кадра
Идентификатор кодека : V_MPEG4/ISO/AVC
Продолжительность : 1 ч. 4 м.
Вид битрейта : Переменный
Битрейт : 10,9 Мбит/сек
Максимальный битрейт : 15,0 Мбит/сек
Ширина : 1920 пикселей
Высота : 1080 пикселей
Соотношение сторон : 16:9
Режим частоты кадров : Постоянный
Частота кадров : 23,976 (24000/1001) кадра/сек
Цветовое пространство : YUV
Субдискретизация насыщенности : 4:2:0
Битовая глубина : 8 бит
Тип развёртки : Прогрессивная
Бит/(Пиксели*Кадры) : 0.219
Размер потока : 4,94 Гбайт (92%)
Default : Да
Forced : Нет
Цветовой диапазон : Limited
Основные цвета : BT.709
Характеристики трансфера : BT.709
Коэффициенты матрицы : BT.709

Аудио #1
Идентификатор : 2
Формат : AC-3
Формат/Информация : Audio Coding 3
Идентификатор кодека : A_AC3
Продолжительность : 1 ч. 4 м.
Вид битрейта : Постоянный
Битрейт : 384 Кбит/сек
Каналы : 6 каналов
Расположение каналов : Front: L C R, Side: L R, LFE
Частота : 48,0 КГц
Частота кадров : 31,250 кадров/сек (1536 SPF)
Битовая глубина : 16 бит
Метод сжатия : С потерями
Размер потока : 179 Мбайт (3%)
Язык : Russian
ServiceKind/String : Complete Main
Default : Да
Forced : Нет

Аудио #2
Идентификатор : 3
Формат : AC-3
Формат/Информация : Audio Coding 3
Идентификатор кодека : A_AC3
Продолжительность : 1 ч. 4 м.
Вид битрейта : Постоянный
Битрейт : 384 Кбит/сек
Каналы : 6 каналов
Расположение каналов : Front: L C R, Side: L R, LFE
Частота : 48,0 КГц
Частота кадров : 31,250 кадров/сек (1536 SPF)
Битовая глубина : 16 бит
Метод сжатия : С потерями
Размер потока : 179 Мбайт (3%)
Язык : English
ServiceKind/String : Complete Main
Default : Нет
Forced : Нет

pb.wtf



Скачать Джек Райан через торрент http://i99.fastpic.ru/big/2018/0909/5b/1a0cd47f0714c20e271497a87aa0305b.jpg Скачать фильм Джек Райан через торрент бесплантно в хорошем качестве Описание: Аналитик ЦРУ Джек Райан натыкается на подозрительную серию банковских переводов и начинает собственное расследование. Оно ... 10 10 3
Info! Золотая раздача, скачанное не засчитывается.
Торрент: Зарегистрирован [2018-09-09 09:38] · скачан: 25 раз
Статус: √ проверено
Размер: 30.56 GB
Как cкачать? Как скачать Джек Райан через торрент | qTorrent

% Раздел Тема Автор DL S | L
Зарубежные сериалы [ 12.74 GB ] Джек Райан / Jack Ryan / Сезон: 2 / Серии: 1-8 из 8 [2019 WEBRip 720p] [DVO] killermax2013 Скачать
1 | 0
Зарубежные сериалы [ 24.67 GB ] Джек Райан / Jack Ryan / Сезон: 2 / Серии: 1-8 из 8 [2019 WEB-DL 1080p] MVO [TVShows] bober100 Скачать
1 | 0
Зарубежные сериалы [ 23.85 GB ] Джек Райан / Jack Ryan / Сезон: 2 / Серия: 1-8 из 8 [2019 WEB-DL 1080p] MVO [Jaskier] bober100 Скачать
1 | 0
Зарубежные сериалы [ 11.42 GB ] Джек Райан / Jack Ryan / Сезон: 2 / Серия: 1-8 из 8 [2019 WEB-DL 720p] MVO [Jaskier] bober100 Скачать
1 | 0
Зарубежные сериалы [ 4.31 GB ] Джек Райан / Jack Ryan / Сезон: 2 / Серия: 1-8 из 8 [2019 WEB-DLRip] MVO [Jaskier] bober100 Скачать
1 | 0
Зарубежные сериалы [ 12.74 GB ] Джек Райан / Jack Ryan / Сезон: 2 / Серия: 1-8 из 8 [2019 WEB-DL 720p] MVO [Lostfilm] bober100 Скачать
1 | 0
Зарубежные сериалы [ 5.16 GB ] Джек Райан / Jack Ryan / Сезон: 2 / Серии: 1-8 из 8 [2019 WEB-DLRip] MVO [LostFilm] bober100 Скачать
2 | 0

28-11-2019 20:33  

Отключить всю рекламу на сайте

    Дорогой пользователь! Огромная просьба, поблагодарите релизера, оцените раздачу и оставьте свои комментарий, если Вы скачали Джек Райан через торрент бесплатно! Внесите свою лепту в развитие PiratBit!
    Комментировать посты могут только пользователи прошедшие не сложную регистрацию
    Показать сообщения:    

    Джек Райан через торрент
    Скачать бесплатно Джек Райан
    Джек Райан скачать торрент
    Джек Райан смотреть онлайн
    Cкачать фильм Джек Райан бесплатно
    Джек Райан скачать торрент в хорошем качестве
    Джек Райан смотреть онлайн бесплатно в хорошем качестве


    Вы не можете начинать темы
    Вы не можете отвечать на сообщения
    Вы не можете редактировать свои сообщения
    Вы не можете удалять свои сообщения
    Вы не можете голосовать в опросах
    Вы не можете прикреплять файлы к сообщениям
    Вы можете скачивать файлы