Ссылка на приватное зеркало нашего сайта всего за 1$. Внимание количество ограничено!!!

2 сезон

iTunes

1 сезон

1

2 сезон

2 сезон

iTunes

1 сезон

RePack

30

Новинка

ВАЖНО

ИГРА 18+

pack

RePack

MK11
pack

Забери бонус

RePack

jed

!!Акция!!

Alien_Rage

RePack

fifa19

RePack

Assassins Creed: Odyssey

RePack

NEED FOR SPEED™ PAYBACK

4 сезон

9 сезон

Бесстыжие 9 сезон

Все сериалы

все сериалы на PB.wtf

RePack

FAR CRY 5
  

Майянцы / Майя МС / Mayans M.C. / Сезон: 1 / Серии: 1-10 из 10 (Норберто Барба, Курт Саттер, Гай Ферленд) [2018, Драма, Криминал, WEB-DL 1080p] MVO [LostFilm] pb.wtf

Майянцы через торрент pb.wtf

Размер: 45.75 GB | Добавлен: 2 года назад | Торрент скачан:18 раз
Скачать  

09-09-2018 11:04 Майянцы Скачать торрент  

Майянцы / Майя МС / Mayans M.C.
Год выпуска: 2018
Страна: США
Жанр: Драма, Криминал
Продолжительность: ~ 01:09:00 серия
Перевод: Профессиональный многоголосый | LostFilm
Субтитры: English (Full, SDH)

Режиссер: Норберто Барба, Курт Саттер, Гай Ферленд

rating

В ролях:

Эдвард Джеймс Олмос, Джон Ортиз, Клинт Юнг, Эрик Од, Рик Крамер, Рэймонд Крус, Дэнни Грюнберг, Дж. ЛаРоуз, Жаклин Обрадорс, Александра Баррето, Марко Моралес, Сизар Делеон, Пабло Рамос, Том Биллет, Артуро Дель Пуэрто, Майкл Ирби, Педро Лопез, Дэниэл Лухан, Эмилио Ривера, Брайант Ромо, Гари Краус, Эфрат Дор, Джои Лучеро, Дэн Кули, Ганс Марреро, Сара Болгер, Винсент Варгас, Клэйтон Карденас

Описание:

События сериала начинаются через два с половиной года после финального эпизода сериала «Сыны анархии». Главный герой — Эзекьель Рейес, кандидат в члены клуба «маянцев» на границе Калифорнии и Мексики, который хочет отомстить наркокартелю

Качество: WEB-DL 1080p | Без заставки и логотипа LostFilm.
Формат: MKV

Видео: 1920x1080 at 23.976 fps, MPEG4-AVC, ~9700 kbps avg
Аудио#1: Russian: 48 kHz, AC3, 3/2 (L,C,R,l,r) + LFE ch, ~640 kbps avg |Многоголосый закадровый, LostFilm|
Аудио#2: English: 48 kHz, AC3, 3/2 (L,C,R,l,r) + LFE ch, ~640 kbps avg
скриншот  скриншот  скриншот  скриншот  

Общее
Уникальный идентификатор : 197979991457037484201329963185052997052 (0x94F18F346C5373C5AEAE585A430E55BC)
Полное имя : E:\Mayans_M.C._(s01)_LostFilm_1080p\Mayans.M.C.s01e01.WEB-DL.1080p.mkv
Формат : Matroska
Версия формата : Version 2
Размер файла : 5,32 Гбайт
Продолжительность : 1 ч. 8 м.
Общий поток : 11,2 Мбит/сек
Дата кодирования : UTC 2018-09-08 16:12:35
Программа кодирования : mkvmerge v4.9.1 ('Ich will') сборка от Jul 11 2011 23:53:15
Библиотека кодирования : libebml v1.2.1 + libmatroska v1.1.1

Видео
Идентификатор : 1
Формат : AVC
Формат/Информация : Advanced Video Codec
Профиль формата : High@L4
Настройки формата : CABAC / 4 Ref Frames
Параметр CABAC формата : Да
Параметр RefFrames формата : 4 кадра
Идентификатор кодека : V_MPEG4/ISO/AVC
Продолжительность : 1 ч. 8 м.
Битрейт : 9671 Кбит/сек
Ширина : 1920 пикселей
Высота : 1080 пикселей
Соотношение сторон : 16:9
Режим частоты кадров : Постоянный
Частота кадров : 23,976 (24000/1001) кадра/сек
Цветовое пространство : YUV
Субдискретизация насыщенности : 4:2:0
Битовая глубина : 8 бит
Тип развёртки : Прогрессивная
Бит/(Пиксели*Кадры) : 0.195
Размер потока : 4,61 Гбайт (87%)
Заголовок : Release by EniaHD
Default : Да
Forced : Нет
Цветовой диапазон : Limited
Основные цвета : BT.709
Характеристики трансфера : BT.709
Коэффициенты матрицы : BT.709

Аудио #1
Идентификатор : 2
Формат : AC-3
Формат/Информация : Audio Coding 3
Идентификатор кодека : A_AC3
Продолжительность : 1 ч. 8 м.
Вид битрейта : Постоянный
Битрейт : 640 Кбит/сек
Каналы : 6 каналов
Расположение каналов : Front: L C R, Side: L R, LFE
Частота : 48,0 КГц
Частота кадров : 31,250 кадров/сек (1536 SPF)
Битовая глубина : 16 бит
Метод сжатия : С потерями
Размер потока : 312 Мбайт (6%)
Заголовок : LostFilm
Язык : Russian
ServiceKind/String : Complete Main
Default : Да
Forced : Нет

Аудио #2
Идентификатор : 3
Формат : AC-3
Формат/Информация : Audio Coding 3
Идентификатор кодека : A_AC3
Продолжительность : 1 ч. 8 м.
Вид битрейта : Постоянный
Битрейт : 640 Кбит/сек
Каналы : 6 каналов
Расположение каналов : Front: L C R, Side: L R, LFE
Частота : 48,0 КГц
Частота кадров : 31,250 кадров/сек (1536 SPF)
Битовая глубина : 16 бит
Метод сжатия : С потерями
Размер потока : 312 Мбайт (6%)
Язык : English
ServiceKind/String : Complete Main
Default : Нет
Forced : Нет

Текст #1
Идентификатор : 4
Формат : UTF-8
Идентификатор кодека : S_TEXT/UTF8
Идентификатор кодека/Информация : UTF-8 Plain Text
Заголовок : Full
Язык : English
Default : Нет
Forced : Нет

Текст #2
Идентификатор : 5
Формат : UTF-8
Идентификатор кодека : S_TEXT/UTF8
Идентификатор кодека/Информация : UTF-8 Plain Text
Заголовок : SDH
Язык : English
Default : Нет
Forced : Нет

Когда раздача ведётся путём добавления новых серий, при каждом добавлении создётся новый торрент. Чтобы начать докачку новой серии, пользователям необходимо сделать следующее:
(1) остановить скачивание,
(2) удалить старый торрент у себя из клиента (старые серии удалять не надо),
(3) скачать новый торрент и запустить его у себя в клиенте вместо старого, при этом указать клиенту путь в старую папку, куда и должно происходить скачивание новых серий.
Ваш клиент при этом должен произвести хеширование (проверку) старой папки (если не производит сам - помогите ему сделать это), и будет докачивать только те серии, которых у вас ещё нет. Старые серии при этом не удаляются, а продолжают раздаваться!
Eсли вы уже удалили старые серии, то предотвратить повторную закачку старых серий можно, отжав галочку в соответствующих местах при запуске нового торрента. По возможности, желательно не удалять старые серии как можно дольше, чтобы релизер не столько продолжал раздавать старые серии, а смог сконцентрироваться на новых.
pb.wtf



Скачать Майянцы через торрент http://b.radikal.ru/b16/1809/aa/3454ae8464fe.jpg Скачать фильм Майянцы через торрент бесплантно в хорошем качестве Описание: События сериала начинаются через два с половиной года после финального эпизода сериала «Сыны анархии». Главный герой — Эзекьель ... 8.8 10 6
Info! Золотая раздача, скачанное не засчитывается.
Торрент: Зарегистрирован [2018-11-16 09:19] · скачан: 18 раз
Статус: √ проверено
Размер: 45.75 GB
Как cкачать? Как скачать Майянцы через торрент | qTorrent

% Раздел Тема Автор DL S | L
Зарубежные сериалы [ 8.88 GB ] Майянцы / Майя МС / Mayans M.C. / Сезон: 2 / Серии: 1-10 из 10 [2019 WEBRip] MVO [TVShows] bober100 Скачать
1 | 0
Зарубежные сериалы [ 7.39 GB ] Майя МС / Майянцы / Mayans M.C. / Сезон: 2 / Серии: 1-10 из 10 [2019 WEB-DLRip] MVO [LostFilm] bober100 Скачать
1 | 0
Зарубежные сериалы [ 21.95 GB ] Майя МС / Майянцы / Mayans M.C. / Сезон: 2 / Серия: 1-10 из 10 [2019 WEB-DL 720p] MVO [TVShows] bober100 Скачать
1 | 0
Зарубежные сериалы [ 47.21 GB ] Майя МС / Майянцы / Mayans M.C. / Сезон: 2 / Серия: 1-10 из 10 [2019 WEB-DL 1080p] MVO [TVShows] bober100 Скачать
1 | 0
Зарубежные сериалы [ 25.02 GB ] Майя МС / Майянцы / Mayans M.C. / Сезон: 2 / Серии: 1-10 из 10 [2019 WEB-DL 720p] MVO [LostFilm] bober100 Скачать
1 | 0
Зарубежные сериалы [ 41.88 GB ] Майя МС / Майянцы / Mayans M.C. / Сезон: 2 / Серия: 1-10 из 10 [2019 WEB-DL 1080p] MVO [LostFilm] bober100 Скачать
2 | 0
Зарубежные сериалы [ 9.83 GB ] Майянцы / Майя МС / Mayans M.C. / Сезон: 1 / Серии: 1-10 из 10 [2018 WEB-DLRip] MVO [TVShows] bober100 Скачать
1 | 0


Последний раз редактировалось: bober100 (2018-11-16 09:22), всего редактировалось 5 раз(а)

28-11-2019 20:33  

Отключить всю рекламу на сайте

27-09-2018 15:05 Майянцы Скачать торрент  

с каким интервалом ждать новых серий, и в какие примерно дни недели?pb.wtf



01-10-2018 17:31 Майянцы Скачать торрент  

где раздача то, ничего не качает(pb.wtf



01-10-2018 18:45 Майянцы Скачать торрент  

Что с раздачей???pb.wtf



    Дорогой пользователь! Огромная просьба, поблагодарите релизера, оцените раздачу и оставьте свои комментарий, если Вы скачали Майянцы через торрент бесплатно! Внесите свою лепту в развитие PiratBit!
    Комментировать посты могут только пользователи прошедшие не сложную регистрацию
    Показать сообщения:    

    Майянцы через торрент
    Скачать бесплатно Майянцы
    Майянцы скачать торрент
    Майянцы смотреть онлайн
    Cкачать фильм Майянцы бесплатно
    Майянцы скачать торрент в хорошем качестве
    Майянцы смотреть онлайн бесплатно в хорошем качестве


    Вы не можете начинать темы
    Вы не можете отвечать на сообщения
    Вы не можете редактировать свои сообщения
    Вы не можете удалять свои сообщения
    Вы не можете голосовать в опросах
    Вы не можете прикреплять файлы к сообщениям
    Вы можете скачивать файлы