2 сезон

iTunes

MVO

1

2 сезон

iTunes

iTunes

1 сезон

RePack

30

Ultimate

ВАЖНО

ИГРА 18+

pack

RePack

MK11
pack

Легкие деньги

RePack

jed

RePack

fifa19

RePack

RDR2

RePack

NEED FOR SPEED™ PAYBACK

4 сезон

9 сезон

Бесстыжие 9 сезон

Все сериалы

все сериалы на PB.wtf

RePack

FAR CRY 5

Anonymous, доброй ночи, мы не успеваем собрать деньги на оплату серверов за декабрь и январь, помогите нам пожалуйста в это трудное время. В качестве благодарности мы отключим Вам всю рекламу на сайте (укажите свой ник в строку Ваше имя)!

×
  
Magnet ссылка

Кривое зеркало (Евгений Петросян, Константин Владимиров) [2003-2013, юмористическая передача, VHSRip, SATRip, TVRip, DVDRip, КПК] pb.wtf

Кривое зеркало через торрент pb.wtf

Раздают: 1 [ 0 KB/s ]
Размер: 50.68 GB | Добавлен: 2 года 3 мес. назад | Торрент скачан:19 раз
Скачать  

09-09-2018 17:40 Кривое зеркало Скачать торрент  

Кривое зеркало

Год выпуска: 2003 - 2013
Жанр: Юмористическая передача

Страна: Россия
Производство: Творческое объединение «ТРИ ДО» (2003—2004)
Телекомпания «ТВМ» (2004—2007)
Телекомпания «Эксклюзив» (2007—2013)

Выпуски: 01-96 из 96
Общая продолжительность: 169:48:59

Перевод: Не требуется
Субтитры: Нет

Автор: Евгений Петросян
Режиссер: Константин Владимиров
В ролях: Евгений Петросян, Елена Степаненко, Александр Морозов, Игорь Христенко, Михаил Вашуков, Михаил Церишенко, Карен Аванесян, Михаил Смирнов, Виктор Разумовский, Алексей Буховцов, Михаил Белов, Обид Асомов

Описание: «Кривое зеркало» — юмористическая телепередача (театр под руководством Евгения Петросяна), выходящая на канале «Россия-1». Спектакли театра весьма разнообразны: это и эстрадные мюзиклы, и традиционный, но в современном звучании театр миниатюр, это и пародийные дивертисменты программ, куда входят практически все виды разговорного жанра. Программа снималась в концертном зале «Академический» и в Государственном музыкальном театре национального искусства п/р Владимира Назарова.

Качество: VHSRip, SATRip, TVRip, DVDRip
Формат: MP4
Видео кодек: AVC
Аудио кодек: AAC
Видео: 480x360, 25 fps, 580 kbps
Аудио: 2 ch, 48 kHz, 128 Kbps
General
Complete name : D:\Видео\Кривое зеркало\81.mp4
Format : MPEG-4
Format profile : Base Media
Codec ID : isom (isom/avc1/iso6)
File size : 513 MiB
Duration : 1h 40mn
Overall bit rate mode : Variable
Overall bit rate : 712 Kbps
Encoded date : UTC 2018-09-27 19:15:39
Tagged date : UTC 2018-09-27 19:15:39

Video
ID : 1
Format : AVC
Format/Info : Advanced Video Codec
Format profile : High@L2.2
Format settings, CABAC : Yes
Format settings, ReFrames : 8 frames
Codec ID : avc1
Codec ID/Info : Advanced Video Coding
Duration : 1h 40mn
Bit rate : 580 Kbps
Maximum bit rate : 1 762 Kbps
Width : 480 pixels
Height : 360 pixels
Display aspect ratio : 4:3
Frame rate mode : Constant
Frame rate : 25.000 fps
Color space : YUV
Chroma subsampling : 4:2:0
Bit depth : 8 bits
Scan type : Progressive
Bits/(Pixel*Frame) : 0.134
Stream size : 417 MiB (81%)
Title : 264@GPAC0.5.2-DEV-rev248-g39d5978-master
Writing library : x264 core 146 r2538 121396c
Encoding settings : cabac=1 / ref=8 / deblock=1:0:0 / analyse=0x3:0x113 / me=hex / subme=8 / psy=1 / psy_rd=1.00:0.00 / mixed_ref=1 / me_range=16 / chroma_me=1 / trellis=1 / 8x8dct=1 / cqm=0 / deadzone=21,11 / fast_pskip=1 / chroma_qp_offset=-2 / threads=3 / lookahead_threads=1 / sliced_threads=0 / nr=0 / decimate=1 / interlaced=0 / bluray_compat=0 / constrained_intra=0 / bframes=8 / b_pyramid=2 / b_adapt=1 / b_bias=0 / direct=3 / weightb=1 / open_gop=0 / weightp=2 / keyint=250 / keyint_min=25 / scenecut=40 / intra_refresh=0 / rc_lookahead=40 / rc=2pass / mbtree=1 / bitrate=580 / ratetol=1.0 / qcomp=0.60 / qpmin=0 / qpmax=69 / qpstep=4 / cplxblur=20.0 / qblur=0.5 / ip_ratio=1.40 / aq=1:1.00
Encoded date : UTC 2018-09-27 19:15:39
Tagged date : UTC 2018-09-27 19:16:05

Audio
ID : 2
Format : AAC
Format/Info : Advanced Audio Codec
Format profile : LC
Codec ID : 40
Duration : 1h 40mn
Bit rate mode : Variable
Bit rate : 128 Kbps
Maximum bit rate : 133 Kbps
Channel(s) : 2 channels
Channel positions : Front: L R
Sampling rate : 48.0 KHz
Frame rate : 46.875 fps (1024 spf)
Compression mode : Lossy
Stream size : 92.1 MiB (18%)
Encoded date : UTC 2018-09-27 17:06:56
Tagged date : UTC 2018-09-27 19:16:05
pb.wtf



Скачать Кривое зеркало через торрент http://i100.fastpic.ru/big/2018/0909/d2/49ed819c261801ac439997c2f2bdd1d2.jpg Скачать фильм Кривое зеркало через торрент бесплантно в хорошем качестве Описание: «Кривое зеркало» — юмористическая телепередача (театр под руководством Евгения Петросяна), выходящая на канале «Россия-1». ... 8.2 10 5
Info! Золотая раздача, скачанное не засчитывается.
Торрент: Зарегистрирован [2018-09-29 13:30] · скачан: 19 раз
Статус: √ проверено
Размер: 50.68 GB
Как cкачать? Как скачать Кривое зеркало через торрент | UTorrent

% Раздел Тема Автор DL S | L
Фильмы (HD 720p, 1080p) (48-60 fps) [ 3.49 GB ] Королевство кривых зеркал [1963 BDRip 720p / 60 FPS Русский] от R.G. HD-Films slaventi-69 Скачать
1 | 0
Развлекательные телепередачи и шоу, приколы и юмор [ 125 GB ] Кривое зеркало [2003 - 2013 Юмористическая передача VHSRip SATRip TVRip DVDRip] Стpана Скачать
7 | 3
Детские отечественные фильмы [ 1.44 GB ] Королевство кривых зеркал [1963 сказка DVDRip] -=Cherry=- Скачать
1 | 1
Развлекательные телепередачи и шоу, приколы и юмор [ 4.44 GB ] Кривое зеркало [2004 Юмор DVDRip-AVC] Страна Скачать
1 | 0
Видео для КПК и Смартфонов [ 26.15 GB ] Кривое зеркало - АНТОЛОГИЯ DVDRip от R.G.RealMT Страна Скачать
1 | 0
Видео для КПК и Смартфонов [ 10.38 GB ] Кривое зеркало - АНТОЛОГИЯ DVDRip от R.G.RealMT Страна Скачать
1 | 0
Рок, Панк, Альтернатива (mp3) [ 161 MB ] КняZz-Тайна кривых зеркал 2012 / MP3 / 256 kbps / Панк Рок xxseverx Скачать
1 | 0


Последний раз редактировалось: Cтрана (2018-09-29 13:30), всего редактировалось 8 раз(а)

28-11-2019 20:33  

Отключить всю рекламу на сайте

09-09-2018 19:09 Кривое зеркало Скачать торрент  

Серьезно?pb.wtf



09-09-2018 19:36 Кривое зеркало Скачать торрент  

xsoulx, нам, троллям, серьёзность не к лицу, поэтому залил юморpb.wtf



16-09-2018 07:06 Кривое зеркало Скачать торрент  

сейчас смотришь, над чем я смеялся(((pb.wtf



16-09-2018 07:23 Кривое зеркало Скачать торрент  

и как этим гомноюмором можно было полтора лярда заработать ??? непонятно !!!pb.wtf



16-09-2018 12:21 Кривое зеркало Скачать торрент  

emelchev писал(а):

и как этим гомноюмором можно было полтора лярда заработать ??? непонятно !!!

ты, такой-сякой, ошибаешься, это как-раз нормальный юмор, и вам, таким-сяким, его не понять...pb.wtf



22-09-2018 08:39 Кривое зеркало Скачать торрент  

Обновил - добавил выпусковpb.wtf



22-09-2018 09:08 Кривое зеркало Скачать торрент  

Неужели петросян помер?pb.wtf



22-09-2018 09:24 Кривое зеркало Скачать торрент  

mehanov2010 писал(а):

Неужели петросян помер?

С чего так подумал?pb.wtf



22-09-2018 09:26 Кривое зеркало Скачать торрент  

Diktor писал(а):

mehanov2010 писал(а):

Неужели петросян помер?

С чего так подумал?

Ну, типа ретроспектива...pb.wtf



22-09-2018 09:32 Кривое зеркало Скачать торрент  

Не. Передача закрыта, но Петросян сделал другуюpb.wtf



22-09-2018 09:36 Кривое зеркало Скачать торрент  

mehanov2010 писал(а):

Неужели петросян помер?

Пока только развелся)pb.wtf



29-09-2018 13:31 Кривое зеркало Скачать торрент  

Раздача укомплектована,

Выпуски: 01-96 из 96
Общая продолжительность: 169:48:59

Приятного просмотра!pb.wtf



    Дорогой пользователь! Огромная просьба, поблагодарите релизера, оцените раздачу и оставьте свои комментарий, если Вы скачали Кривое зеркало через торрент бесплатно! Внесите свою лепту в развитие PiratBit!
    Комментировать посты могут только пользователи прошедшие не сложную регистрацию
    Показать сообщения:    

    Кривое зеркало через торрент
    Скачать бесплатно Кривое зеркало
    Кривое зеркало скачать торрент
    Кривое зеркало смотреть онлайн
    Cкачать фильм Кривое зеркало бесплатно
    Кривое зеркало скачать торрент в хорошем качестве
    Кривое зеркало смотреть онлайн бесплатно в хорошем качестве


    Вы не можете начинать темы
    Вы не можете отвечать на сообщения
    Вы не можете редактировать свои сообщения
    Вы не можете удалять свои сообщения
    Вы не можете голосовать в опросах
    Вы не можете прикреплять файлы к сообщениям
    Вы можете скачивать файлы