Ссылка на приватное зеркало нашего сайта всего за 1$. Внимание количество ограничено!!!

2 сезон

iTunes

1 сезон

1

2 сезон

2 сезон

iTunes

1 сезон

RePack

30

Ultimate

ВАЖНО

ИГРА 18+

pack

RePack

MK11
pack

Забери бонус

RePack

jed

!!Акция!!

Alien_Rage

RePack

fifa19

RePack

Assassins Creed: Odyssey

RePack

NEED FOR SPEED™ PAYBACK

4 сезон

9 сезон

Бесстыжие 9 сезон

Все сериалы

все сериалы на PB.wtf

RePack

FAR CRY 5
  

Двойка / The Deuce / Сезон: 2 / Серии: 1-8 из 9 (Джеймс Франко, Мишель МакЛарен, Ута Бризвитц) [2018, Драма, WEBRip] MVO [Амедиа] pb.wtf

Двойка через торрент pb.wtf

Размер: 6.45 GB | Добавлен: 2 года 1 мес. назад | Торрент скачан:23 раза
Скачать  

10-09-2018 04:36 Двойка Скачать торрент  

Двойка / The Deuce
Год выпуска: 2018
Страна: США
Жанр: Драма
Продолжительность: ~00:58:00
Перевод: Профессиональный многоголосый | Амедиа
Субтитры: отсутствуют

Режиссер: Джеймс Франко, Мишель МакЛарен, Ута Бризвитц

rating

В ролях:

Джеймс Франко, Мэгги Джилленхол, Гари Карр, Маргарита Левиева, Лоуренс Гиллиард мл., Доминик Фишбэк, Эмили Мид, Гбенга Акиннагбе, Кристофер Бауэр

Описание:

Проект исследует беспорядочный мир порно-индустрии 1970-80х годов, процветавший в самом сердце Манхэттена, пока появление СПИДа, распространение наркотиков и обновление рынка недвижимости не положили конец этому безумию.

Качество: WEBRip
Формат: AVI

Видео: XviD,1630 kb/s, 720x400
Аудио#1: Russian: AC3, 192 kb/s, 2 ch
Аудио#2: English: AC3, 192 kb/s, 2 ch
скриншот  скриншот  скриншот  

Общее
Полное имя : E:\Para.02.Am\Para.2.01.Am.avi
Формат : AVI
Формат/Информация : Audio Video Interleave
Размер файла : 812 Мбайт
Продолжительность : 58 м. 30 с.
Общий поток : 1939 Кбит/сек
Режиссёр : BiNMoViE
Программа кодирования : VirtualDubMod 1.5.10.2 (build 2540/release)
Библиотека кодирования : VirtualDubMod build 2540/release
IsTruncated : Yes

Видео
Идентификатор : 0
Формат : MPEG-4 Visual
Профиль формата : Advanced Simple@L5
Настройки формата : BVOP2
Параметр BVOP формата : 2
Параметр QPel формата : Нет
Параметр GMC формата : Без точки перехода
Параметр матрицы формата : Default (MPEG)
Идентификатор кодека : XVID
Идентификатор кодека/Подсказка : XviD
Продолжительность : 58 м. 30 с.
Битрейт : 1541 Кбит/сек
Ширина : 720 пикселей
Высота : 400 пикселей
Соотношение сторон : 16:9
Частота кадров : 23,976 (24000/1001) кадра/сек
Цветовое пространство : YUV
Субдискретизация насыщенности : 4:2:0
Битовая глубина : 8 бит
Тип развёртки : Прогрессивная
Метод сжатия : С потерями
Бит/(Пиксели*Кадры) : 0.223
Размер потока : 645 Мбайт (79%)
Библиотека кодирования : XviD 1.2.1 (UTC 2008-12-04)

Аудио #1
Идентификатор : 1
Формат : AC-3
Формат/Информация : Audio Coding 3
Идентификатор кодека : 2000
Продолжительность : 58 м. 30 с.
Вид битрейта : Постоянный
Битрейт : 192 Кбит/сек
Каналы : 2 канала
Расположение каналов : Front: L R
Частота : 48,0 КГц
Частота кадров : 31,250 кадров/сек (1536 SPF)
Битовая глубина : 16 бит
Метод сжатия : С потерями
Размер потока : 80,3 Мбайт (10%)
Выравнивание : Разделение по промежуткам
Продолжительность промежутка : 42 мс. (1,00 видеокадр)
Время предзагрузки промежутка : 500 мс.
ServiceKind/String : Complete Main

Аудио #2
Идентификатор : 2
Формат : AC-3
Формат/Информация : Audio Coding 3
Идентификатор кодека : 2000
Продолжительность : 58 м. 30 с.
Вид битрейта : Постоянный
Битрейт : 192 Кбит/сек
Каналы : 2 канала
Расположение каналов : Front: L R
Частота : 48,0 КГц
Частота кадров : 31,250 кадров/сек (1536 SPF)
Битовая глубина : 16 бит
Метод сжатия : С потерями
Задержка видео : 30 мс.
Размер потока : 80,3 Мбайт (10%)
Выравнивание : Разделение по промежуткам
Продолжительность промежутка : 42 мс. (1,00 видеокадр)
Время предзагрузки промежутка : 500 мс.
ServiceKind/String : Complete Main

Когда раздача ведётся путём добавления новых серий, при каждом добавлении создётся новый торрент. Чтобы начать докачку новой серии, пользователям необходимо сделать следующее:
(1) остановить скачивание,
(2) удалить старый торрент у себя из клиента (старые серии удалять не надо),
(3) скачать новый торрент и запустить его у себя в клиенте вместо старого, при этом указать клиенту путь в старую папку, куда и должно происходить скачивание новых серий.
Ваш клиент при этом должен произвести хеширование (проверку) старой папки (если не производит сам - помогите ему сделать это), и будет докачивать только те серии, которых у вас ещё нет. Старые серии при этом не удаляются, а продолжают раздаваться!
Eсли вы уже удалили старые серии, то предотвратить повторную закачку старых серий можно, отжав галочку в соответсвующих местах при запуске нового торрента. По возможности, желательно не удалять старые серии как можно дольше, чтобы релизёр не столько продолжал раздавать старые серии, а смог сконцентрироваться на новых.
Закрыть
pb.wtf



Скачать Двойка через торрент https://a.radikal.ru/a15/1809/3e/80a1603062b6.jpg Скачать фильм Двойка через торрент бесплантно в хорошем качестве Описание: Проект исследует беспорядочный мир порно-индустрии 1970-80х годов, процветавший в самом сердце Манхэттена, пока появление СПИДа, ... 10 10 3
Торрент: Зарегистрирован [2018-11-02 20:02] · скачан: 23 раз
Статус: √ проверено
Размер: 6.45 GB
Как cкачать? Как скачать Двойка через торрент | qTorrent

28-11-2019 20:33  

Отключить всю рекламу на сайте

    Дорогой пользователь! Огромная просьба, поблагодарите релизера, оцените раздачу и оставьте свои комментарий, если Вы скачали Двойка через торрент бесплатно! Внесите свою лепту в развитие PiratBit!
    Комментировать посты могут только пользователи прошедшие не сложную регистрацию
    Показать сообщения:    

    Двойка через торрент
    Скачать бесплатно Двойка
    Двойка скачать торрент
    Двойка смотреть онлайн
    Cкачать фильм Двойка бесплатно
    Двойка скачать торрент в хорошем качестве
    Двойка смотреть онлайн бесплатно в хорошем качестве


    Вы не можете начинать темы
    Вы не можете отвечать на сообщения
    Вы не можете редактировать свои сообщения
    Вы не можете удалять свои сообщения
    Вы не можете голосовать в опросах
    Вы не можете прикреплять файлы к сообщениям
    Вы можете скачивать файлы