Всегда рабочее зеркало без VPN и Proxy просто перед .vidak.icu напиши любое слово или цифру, Пример http://gz7e.vidak.icu

Лицензия

MVO

1 сезон

1

1 сезон

iTunes

1 сезон

13

1 сезон

Deluxe

pack

Рекомендуем

Repack

30

ВАЖНО

RePack

MK11

RePack

jed

RePack

fifa19

RePack

RDR2

RePack

NEED FOR SPEED™ PAYBACK

Кинопоиск HD

6 сезон

 Острые козырьки 6 сезон

Все сериалы

все сериалы на PB.wtf

RePack

FAR CRY 5
  
Magnet ссылка

Мир Юрского периода 2 / Jurassic World: Fallen Kingdom (Хуан Антонио Байона) [2018, фантастика, боевик, приключения, UHD BDRip 2160p] [SDR] DUB (rus, ukr) [Лицензия] pb.wtf

Мир Юрского периода 2 через торрент pb.wtf

Размер: 19.64 GB | Добавлен: 3 года 10 мес. назад | Торрент скачан:142 раза
Смотреть онлайн Мир Юрского периода 2 | Скачать    Ребята, помогите собрать деньги на оплату серверов!!!

10-09-2018 06:43 Мир Юрского периода 2 Скачать торрент  

Мир Юрского периода 2 / Jurassic World: Fallen Kingdom«Жизнь нельзя остановить»
Год выпуска: 2018
Страна: США
Жанр: фантастика, боевик, приключения
Продолжительность: 02:08:17
Перевод: Дублированный | Лицензия
Субтитры: Русские, английские, украинские
Режиссер: Хуан Антонио Байона
В ролях:

Крис Пратт (Owen Grady), Брайс Даллас Ховард (Claire Dearing), Рейф Сполл (Eli Mills), Джастис Смит (Franklin Webb), Даниэлла Пинеда (Zia Rodriguez), Джеймс Кромуэлл (Benjamin Lockwood), Тоби Джонс (Mr. Eversol), Тед Левайн (Ken Wheatley), Джефф Голдблюм (Ian Malcolm), Б.Д. Вонг (Dr. Wu), Джеральдин Чаплин (Iris), Изабелла Сермон (Maisie Lockwood)
Описание:
На острове Нублар, где не так давно располагался парк развлечений с динозаврами, правит бал дикая природа, но внезапно пробудившийся вулкан угрожает стереть динозавров с лица земли. Бывшая управляющая парком Клэр Диринг переквалифицировалась в защитницу исчезающих видов и пытается сделать всё, чтобы спасти доисторических животных. На неё выходит Илай Миллс - доверенное лицо миллиардера Бенждамина Локвуда, который много лет назад был соратником профессора Хаммонда. Миллс предлагает Клэр, знакомой с системой безопасности парка, поехать на остров и помочь ему поймать нескольких особей, чтобы вывести их на другой безопасный остров. Клэр даже удается уговорить своего бывшего парня, дрессировщика Оуэена, принять участие в спасательной миссии, но по прибытии в парк, выясняется, что у Миллса совсем другие цели.
Рейтинг:

MPAA: PG-13 - Детям до 13 лет просмотр не желателен
Качество: UHD BDRip 2160p | SDR
Формат: MKV
Видео: MPEG-4 AVC, 15600 Кбит/с, 3840x1606, 23.976 Кадр/с
Аудио 1: Русский / DTS / 48 KHz / 5.1 ch / 768 Kbps (Дубляж -Лицензия)
Аудио 2: Русский / AC3 / 48 KHz / 5.1 ch / 448 Kbps (Дубляж -Лицензия)
Аудио 3: Украинский / AC3 / 48 KHz / 2 ch / 192 Kbps (Дубляж)
Аудио 4: Английский / DTS-HD MA / 48 KHz / 7.1 ch / 4231 Kbps (Original)
Аудио 5: Английский / AC3 / 48 KHz / 5.1 ch / 640 Kbps (Original)
Навигация по главам: есть
Общее
Уникальный идентификатор : 177998979538903690609112881840900553275 (0x85E95B420A2431C39B981E34239C3A3B)
Полное имя : G:\Jurassic.World.Fallen.Kingdom.2018.2160p.BluRay.x264.8bit.SDR.Master5.mkv
Формат : Matroska
Версия формата : Version 4 / Version 2
Размер файла : 18,7 Гбайт
Продолжительность : 2 ч. 8 м.
Общий поток : 20,9 Мбит/сек
Название фильма : Jurassic.World.Fallen.Kingdom.2018.2160p.BluRay.x264.8bit.SDR.Master5
Дата кодирования : UTC 2018-09-10 00:18:07
Программа кодирования : mkvmerge v7.9.0 ('Birds') 64bit
Библиотека кодирования : libebml v1.3.1 + libmatroska v1.4.2
Обложка : Yes
Attachments : small_cover.jpg / small_cover_land.jpg / cover.jpg / cover_land.jpg

Видео
Идентификатор : 1
Формат : AVC
Формат/Информация : Advanced Video Codec
Профиль формата : [email protected]
Настройки формата : CABAC / 5 Ref Frames
Параметр CABAC формата : Да
Параметр RefFrames формата : 5 кадров
Идентификатор кодека : V_MPEG4/ISO/AVC
Продолжительность : 2 ч. 8 м.
Битрейт : 15,6 Мбит/сек
Ширина : 3840 пикселей
Высота : 1606 пикселей
Соотношение сторон : 2,40:1
Режим частоты кадров : Постоянный
Частота кадров : 23,976 (24000/1001) кадра/сек
Цветовое пространство : YUV
Субдискретизация насыщенности : 4:2:0
Битовая глубина : 8 бит
Тип развёртки : Прогрессивная
Бит/(Пиксели*Кадры) : 0.106
Размер потока : 14,0 Гбайт (75%)
Заголовок : Jurassic.World.Fallen.Kingdom.2018.2160p.BluRay.x264.8bit.SDR.Master5
Библиотека кодирования : x264 core 155 r2901 7d0ff22
Настройки программы : cabac=1 / ref=5 / deblock=1:-1:-1 / analyse=0x3:0x113 / me=umh / subme=10 / psy=1 / psy_rd=1.00:0.15 / mixed_ref=1 / me_range=48 / chroma_me=1 / trellis=2 / 8x8dct=1 / cqm=0 / deadzone=21,11 / fast_pskip=1 / chroma_qp_offset=-3 / threads=36 / lookahead_threads=3 / sliced_threads=0 / nr=0 / decimate=0 / interlaced=0 / bluray_compat=0 / constrained_intra=0 / bframes=3 / b_pyramid=2 / b_adapt=2 / b_bias=0 / direct=3 / weightb=1 / open_gop=0 / weightp=2 / keyint=250 / keyint_min=23 / scenecut=40 / intra_refresh=0 / rc_lookahead=50 / rc=crf / mbtree=1 / crf=18.0 / qcomp=0.60 / qpmin=0 / qpmax=69 / qpstep=4 / ip_ratio=1.40 / aq=1:1.00
Язык : English
Default : Да
Forced : Нет

Аудио #1
Идентификатор : 2
Формат : AC-3
Формат/Информация : Audio Coding 3
Идентификатор кодека : A_AC3
Продолжительность : 2 ч. 8 м.
Вид битрейта : Постоянный
Битрейт : 384 Кбит/сек
Каналы : 6 каналов
Расположение каналов : Front: L C R, Side: L R, LFE
Частота : 48,0 КГц
Частота кадров : 31,250 кадров/сек (1536 SPF)
Битовая глубина : 16 бит
Метод сжатия : С потерями
Размер потока : 352 Мбайт (2%)
Заголовок : iTunes
Язык : Russian
ServiceKind/String : Complete Main
Default : Нет
Forced : Да

Аудио #2
Идентификатор : 3
Формат : DTS
Формат/Информация : Digital Theater Systems
Профиль формата : X / MA / Core
Идентификатор кодека : A_DTS
Продолжительность : 2 ч. 8 м.
Вид битрейта : Переменный / Переменный / Постоянный
Битрейт : 4231 Кбит/сек / 4231 Кбит/сек / 1509 Кбит/сек
Каналы : Object Based / 8 каналов / 6 каналов
Расположение каналов : Object Based / Front: L C R, Side: L R, Back: L R, LFE / Front: L C R, Side: L R, LFE
Частота : / 48,0 КГц / 48,0 КГц
Частота кадров : 93,750 кадра/сек (512 SPF)
Битовая глубина : / 24 бит / 24 бит
Метод сжатия : / Lossless / Lossy
Размер потока : 3,79 Гбайт (20%)
Язык : English
Default : Нет
Forced : Нет

Аудио #3
Идентификатор : 4
Формат : AC-3
Формат/Информация : Audio Coding 3
Идентификатор кодека : A_AC3
Продолжительность : 2 ч. 8 м.
Вид битрейта : Постоянный
Битрейт : 640 Кбит/сек
Каналы : 6 каналов
Расположение каналов : Front: L C R, Side: L R, LFE
Частота : 48,0 КГц
Частота кадров : 31,250 кадров/сек (1536 SPF)
Битовая глубина : 16 бит
Метод сжатия : С потерями
Размер потока : 587 Мбайт (3%)
Заголовок : Original
Язык : English
ServiceKind/String : Complete Main
Default : Нет
Forced : Нет

Текст #1
Идентификатор : 5
Формат : UTF-8
Идентификатор кодека : S_TEXT/UTF8
Идентификатор кодека/Информация : UTF-8 Plain Text
Продолжительность : 1 ч. 56 м.
Битрейт : 73 бит/сек
ElementCount : 1724
Размер потока : 62,7 Кбайт (0%)
Заголовок : Full
Язык : Russian
Default : Нет
Forced : Нет

Текст #2
Идентификатор : 6
Формат : UTF-8
Идентификатор кодека : S_TEXT/UTF8
Идентификатор кодека/Информация : UTF-8 Plain Text
Продолжительность : 2 ч. 7 м.
Битрейт : 48 бит/сек
ElementCount : 1771
Размер потока : 45,4 Кбайт (0%)
Заголовок : SDH
Язык : English
Default : Нет
Forced : Нет

Меню
00:00:00.000 : :Chapter 1
00:07:13.224 : :Chapter 2
00:12:01.554 : :Chapter 3
00:17:17.745 : :Chapter 4
00:21:17.192 : :Chapter 5
00:28:49.811 : :Chapter 6
00:35:04.685 : :Chapter 7
00:40:51.574 : :Chapter 8
00:46:32.498 : :Chapter 9
00:52:04.996 : :Chapter 10
01:00:59.197 : :Chapter 11
01:06:50.256 : :Chapter 12
01:11:07.638 : :Chapter 13
01:17:21.094 : :Chapter 14
01:26:55.210 : :Chapter 15
01:33:01.492 : :Chapter 16
01:42:55.878 : :Chapter 17
01:50:01.553 : :Chapter 18
01:54:56.222 : :Chapter 19
01:58:37.985 : :Chapter 20
pb.wtf



Скачать Мир Юрского периода 2 через торрент https://b.radikal.ru/b43/1809/e3/3239bea20fba.jpg Скачать, смотреть онлайн Мир Юрского периода 2 бесплантно в хорошем качестве Описание: На острове Нублар, где не так давно располагался парк развлечений с динозаврами, правит бал дикая природа, но внезапно ... 10 10 10
Info! Золотая раздача, скачанное не засчитывается.
Торрент: Зарегистрирован [2018-09-28 02:26] · скачан: 142 раз
Статус: √ проверено
Размер: 19.64 GB
Как cкачать? Как скачать Мир Юрского периода 2 через торрент | UTorrent

% Раздел Тема Автор DL S | L
Фильмы (HD 720p, 1080p) (48-60 fps) [ 3.92 GB ] Мир Юрского периода 2 / Jurassic World: Fallen Kingdom [2018 BDRip 720p / 60 FPS ] от R.G. HD-Films slaventi-69 Скачать
1 | 0
3D Фильмы [ 15.61 GB ] Мир Юрского периода 2 в 3Д / Jurassic World: Fallen Kingdom 3D [2018 BDRip 1080p] OverUnder / Вертикальная стереопара serega768 Скачать
1 | 0
Фильмы [HD 720p, 1080p] (Хороший звук DUB, MVO) [ 5.4 GB ] Мир Юрского периода 2 / Jurassic World: Fallen Kingdom [2018 BDRip 1080p HEVC ()] Мичман37 Скачать
2 | 0
Ultra HD (UHD: 2K, 4K, 8K) — видео сверхвысокой чёткости [ 77.49 GB ] Мир Юрского периода 2 / Jurassic World: Fallen Kingdom [2018 UHD Blu-Ray 2160p] DUB [Dolby Vision] sheker187 Скачать
1 | 0
Фильмы (HD 720p, 1080p) (48-60 fps) [ 10.62 GB ] Мир Юрского периода 2 / Jurassic World: Fallen Kingdom [2018 BDRip 1080p 60 fps] DUB [] bober100 Скачать
1 | 1
Фильмы (Blu-ray, BD-Remux, HDDVD) [ 41.63 GB ] Мир Юрского периода 2 / Jurassic World: Fallen Kingdom [2018 Blu-ray EUR 1080p] DUB [] bober100 Скачать
1 | 0
3D Фильмы [ 10.8 GB ] Мир Юрского периода 2 в 3Д / Jurassic World: Fallen Kingdom 3D [2018 BDRip 1080p] DUB Half OverUnder sheker187 Скачать
1 | 0

28-11-2019 20:33  

Отключить вcю реклaмy на сайте

28-09-2018 04:18 Мир Юрского периода 2 Скачать торрент  

Замена на лицензию добавлены украинская дорога и форс субтитры.
Желающие, скачайте заново торрент-файл.
pb.wtf



    Дорогой пользователь! Огромная просьба, поблагодарите релизера, оцените раздачу и оставьте свои комментарий, если Вы скачали Мир Юрского периода 2 через торрент бесплатно!
    Комментировать посты могут только пользователи прошедшие не сложную регистрацию
    Показать сообщения:    

    Мир Юрского периода 2 через торрент
    Скачать бесплатно Мир Юрского периода 2
    Мир Юрского периода 2 скачать торрент
    Мир Юрского периода 2 смотреть онлайн
    Cкачать фильм Мир Юрского периода 2 бесплатно
    Мир Юрского периода 2 скачать торрент в хорошем качестве
    Мир Юрского периода 2 смотреть онлайн бесплатно в хорошем качестве


    Вы не можете начинать темы
    Вы не можете отвечать на сообщения
    Вы не можете редактировать свои сообщения
    Вы не можете удалять свои сообщения
    Вы не можете голосовать в опросах
    Вы не можете прикреплять файлы к сообщениям
    Вы можете скачивать файлы