новый адрес
Ссылка на приватное зеркало всего за 1$. Внимание количество ограничено!!!

iTunes

1+1

iTunes

мы

iTunes

1

iTunes

Чернобыль

iTunes

Ральф против интернета

Лицензия

ПШазам

Лицензия

Оно 2

Лицензия

30
pack

Вам бонус

ВАЖНО

!!Акция!!

Alien_RageХит недели

RePack

Resident Evil 21

ИГРА 18+

pack

RePack

jed

!!Акция!!

Alien_Rage

RePack

fifa19

RePack

Assassins Creed: Odyssey

RePack

NEED FOR SPEED™ PAYBACK

3 сезон

9 сезон

Бесстыжие 9 сезон

Все сериалы

все сериалы на PB.wtf

RePack

FAR CRY 5
Ребята, катастрофически не хватает 1900р. для оплаты серверов за Октябрь (всвязи с блокировками трафик упал в 3 раза), 1-2р., выручайте.
  

Водяной (Сергей Сиделёв) [1961, СССР, короткометражка, комедия, SATRip от AVP Studio] pb.wtf

Водяной через торрент pb.wtf

Размер: 372 MB | Добавлен: 1 год 2 мес. назад | Торрент скачан:8 раз
Скачать  

10-09-2018 07:45 Водяной Скачать торрент  

Водяной
Страна: СССР
Производство: Ленфильм

Жанр: короткометражка, комедия
Год выпуска: 1961
Продолжительность: 00:34:40

Перевод: Не требуется
Cубтитры: нет
Оригинальная аудиодорожка: русский

Режиссер: Сергей Сиделёв

В ролях:
Эраст Гарин, Валентина Владимирова, Михаил Фёдоров, Анатолий Кубацкий, Е. Сердечкина, Владимир Казаринов, Николай Мельников...
Об актёрах подробней

Описание:
За то, что Лыков вечно пропадал на берегу озера с удочкой, над ним потешались, издевались, прозвали Водяным и нашли его увлечению верное применение: Лыкову поручили организовать рыбный промысел в колхозе...

Исходник: DVB
Качество видео: SATRip
Формат видео: AVI

Видео: 704x528 (4:3), 25,000 кадров/сек, XviD ~ 1299 kbps avg, 0.140 bit/pixel
Аудио: 48 kHz, Dolby Digital AC3 2.0, 192 kbps

Раздача от:
Общее
Полное имя : Vodyanoy.1961.SATRip_[New-team]_by_AVP_Studio.avi
Формат : AVI
Формат/Информация : Audio Video Interleave
Размер файла : 372 Мбайт
Продолжительность : 34 м. 39 с.
Общий поток : 1500 Кбит/сек
Программа кодирования : VirtualDubMod 1.5.10.3 | www.virtualdub-fr.org || (build 2550/release)
Библиотека кодирования : VirtualDubMod build 2550/release

Видео
Идентификатор : 0
Формат : MPEG-4 Visual
Профиль формата : Advanced Simple@L5
Настройки формата : BVOP1 / Custom Matrix
Параметр BVOP формата : 1
Параметр QPel формата : Нет
Параметр GMC формата : Без точки перехода
Параметр матрицы формата : Выборочная
Идентификатор кодека : XVID
Идентификатор кодека/Подсказка : XviD
Продолжительность : 34 м. 39 с.
Битрейт : 1299 Кбит/сек
Ширина : 704 пикселя
Высота : 528 пикселей
Соотношение сторон : 4:3
Частота кадров : 25,000 кадров/сек
Цветовое пространство : YUV
Субдискретизация насыщенности : 4:2:0
Битовая глубина : 8 бит
Тип развёртки : Прогрессивная
Метод сжатия : С потерями
Бит/(Пиксели*Кадры) : 0.140
Размер потока : 322 Мбайт (87%)
Библиотека кодирования : XviD 73

Аудио
Идентификатор : 1
Формат : AC-3
Формат/Информация : Audio Coding 3
Коммерческое название : Dolby Digital
Идентификатор кодека : 2000
Продолжительность : 34 м. 39 с.
Вид битрейта : Постоянный
Битрейт : 192 Кбит/сек
Каналы : 2 канала
Channel layout : L R
Частота : 48,0 КГц
Частота кадров : 31,250 кадров/сек (1536 SPF)
Битовая глубина : 16 бит
Метод сжатия : С потерями
Размер потока : 47,6 Мбайт (13%)
Выравнивание : Разделение по промежуткам
Продолжительность промежутка : 40 мс. (1,00 видеокадр)
Время предзагрузки промежутка : 500 мс
pb.wtf



Скачать Водяной через торрент http://picplus.ru/img/1809/10/79497c2c.png Скачать фильм Водяной через торрент бесплантно в хорошем качестве Описание:За то, что Лыков вечно пропадал на берегу озера с удочкой, над ним потешались, издевались, прозвали Водяным и нашли его увлечению ... 5 10 1
Info! Золотая раздача, скачанное не засчитывается.
Торрент: Зарегистрирован [2018-09-10 07:45] · скачан: 8 раз
Статус: √ проверено
Размер: 372 MB
Как cкачать? Как скачать Водяной через торрент | qTorrent

% Раздел Тема Автор DL S | L
T Наши фильмы (мультфильмы) cо спонсором показа (Новинки AVI/MKV) [ 3.74 GB ] Водяная [2019 детский WEB-DL 1080p] bober100 Скачать
1 | 0
T Наши фильмы (мультфильмы) cо спонсором показа (Новинки AVI/MKV) [ 3.33 GB ] Водяная [2019 детский WEB-DL 720p] bober100 Скачать
1 | 0
Детские отечественные фильмы [ 1.38 GB ] Водяная [2019 детский WEB-DLRip] bober100 Скачать
1 | 0
Кино СССР [ 372 MB ] Водяной [1961 СССР короткометражка SATRip-AVC от AVP Studio] AVP Studio Скачать
1 | 0
Фантастика [ 949 MB ] Паоло Бачигалупи - Водяной нож [Евгений Перепелица 2018 128 kbps MP3] bober100 Скачать
1 | 0
T Фильмы 2015 [DVDrip, WEB-DLRip, HDrip] [ 1.38 GB ] Баба Джун / Baba Joon [2015 HDRip Любительский одноголосый [Александр Водяной] PsYcho Скачать
1 | 0
Ужасы, Мистика [ 114 MB ] Желание [2016 Классика аудиокнига MP3 320kbps Водяной Александр] Magnat Скачать
1 | 0
    Дорогой пользователь! Огромная просьба, поблагодарите релизера, оцените раздачу и оставьте свои комментарий, если Вы скачали Водяной через торрент бесплатно! Внесите свою лепту в развитие PiratBit!
    Комментировать посты могут только пользователи прошедшие не сложную регистрацию
    Показать сообщения:    

    Водяной через торрент
    Скачать бесплатно Водяной
    Водяной скачать торрент
    Водяной смотреть онлайн
    Cкачать фильм Водяной бесплатно
    Водяной скачать торрент в хорошем качестве
    Водяной смотреть онлайн бесплатно в хорошем качестве


    Вы не можете начинать темы
    Вы не можете отвечать на сообщения
    Вы не можете редактировать свои сообщения
    Вы не можете удалять свои сообщения
    Вы не можете голосовать в опросах
    Вы не можете прикреплять файлы к сообщениям
    Вы можете скачивать файлы