новый адрес
Ссылка на приватное зеркало всего за 1$. Внимание количество ограничено!!!

iTunes

1+1

iTunes

мы

WEB-DL

1

iTunes

Чернобыль

iTunes

Ральф против интернета

Лицензия

ПШазам

Лицензия

Оно 2

Лицензия

30
pack

Вам бонус

ВАЖНО

!!Акция!!

Alien_RageХит недели

RePack

Resident Evil 21

ИГРА 18+

pack

RePack

jed

!!Акция!!

Alien_Rage

RePack

fifa19

RePack

Assassins Creed: Odyssey

RePack

NEED FOR SPEED™ PAYBACK

3 сезон

9 сезон

Бесстыжие 9 сезон

Все сериалы

все сериалы на PB.wtf

RePack

FAR CRY 5
Ребята, катастрофически не хватает 1900р. для оплаты серверов за Октябрь (всвязи с блокировками трафик упал в 3 раза), 1-2р., выручайте.
  

Идеальный дом / Ideal Home (Эндрю Флеминг) [2018, драма, комедия, BDRip] MVO [HDrezka Studio] pb.wtf

Идеальный дом через торрент pb.wtf

Раздают: 1 [ 0 KB/s ]
Размер: 1.46 GB | Добавлен: 1 год 3 мес. назад | Торрент скачан:269 раз
Скачать  

10-09-2018 08:54 Идеальный дом Скачать торрент  

Идеальный дом / Ideal Home
Год выпуска: 2018
Страна: США
Жанр: драма, комедия
Продолжительность: 01:31:18
Перевод: Профессиональный (многоголосый) | HDrezka Studio
Субтитры: отдельными файлами | русские, английские

Режиссер: Эндрю Флеминг

rating

В ролях:

Пол Радд, Кейт Уолш, Элисон Пилл, Джейк Макдорман, Стив Куган, Сара Минник, Лора Каннингэм, Джесси Люкен, Фрэнсис Ли МакКейн

Описание:

Эрасмус и Пол живут весёлой и беззаботной жизнью, пока на пороге не возникает 10-летний парень — по его собственному заверению, внук Эрасмуса. Привычному существованию приходит конец...

Качество: BDRip
Формат: AVI

Видео: 720x304 (2.35:1), 23.976 fps, XviD build 67 ~1 891 kbps avg, 0.360 bit/pixel
Аудио#1: 48.0 kHz, AC3 Dolby Digital, 2/0 (L,R) ch, ~192 kbps | RUS
Аудио#2: 48.0 kHz, AC3 Dolby Digital, 2/0 (L,R) ch, ~192 kbps | ENG
скриншот  скриншот  скриншот  скриншот  скриншот  

General
Полное имя : Idealnyi_dom_2018_BDRip_MVO_by_Dalemake.avi
Формат : AVI
Формат/Информация : Audio Video Interleave
Размер файла : 1,46 Гбайт
Продолжительность : 1 ч. 31 м.
Общий поток : 2289 Кбит/сек
Программа кодирования : VirtualDubMod 1.5.10.3 | (build 2550/release)
Библиотека кодирования : VirtualDubMod build 2550/release

Видео
Идентификатор : 0
Формат : MPEG-4 Visual
Профиль формата : Advanced Simple@L5
Параметр BVOP формата : 1
Параметр QPel формата : Нет
Параметр GMC формата : Без точки перехода
Параметр матрицы формата : Выборочная
Идентификатор кодека : XVID
Идентификатор кодека/Подсказка : XviD
Продолжительность : 1 ч. 31 м.
Битрейт : 1891 Кбит/сек
Ширина : 720 пикселей
Высота : 304 пикселя
Соотношение сторон : 2,35:1
Частота кадров : 23,976 кадра/сек
Цветовое пространство : YUV
Субдискретизация насыщенности : 4:2:0
Битовая глубина : 8 бит
Тип развёртки : Прогрессивная
Метод сжатия : С потерями
Бит/(Пиксели*Кадры) : 0.360
Размер потока : 1,21 Гбайт (83%)
Библиотека кодирования : XviD 67

Аудио #1
Идентификатор : 1
Формат : AC-3
Формат/Информация : Audio Coding 3
Расширение режима : CM (complete main)
Параметр Endianness формата : Big
Идентификатор кодека : 2000
Продолжительность : 1 ч. 31 м.
Вид битрейта : Постоянный
Битрейт : 192 Кбит/сек
Каналы : 2 канала
Расположение каналов : Front: L R
Частота : 48,0 КГц
Битовая глубина : 16 бит
Метод сжатия : С потерями
Размер потока : 125 Мбайт (8%)
Выравнивание : Разделение по промежуткам
Продолжительность промежутка : 42 мс. (1,00 видеокадр)
Время предзагрузки промежутка : 500 мс.

Аудио #2
Идентификатор : 2
Формат : AC-3
Формат/Информация : Audio Coding 3
Расширение режима : CM (complete main)
Параметр Endianness формата : Big
Идентификатор кодека : 2000
Продолжительность : 1 ч. 31 м.
Вид битрейта : Постоянный
Битрейт : 192 Кбит/сек
Каналы : 2 канала
Расположение каналов : Front: L R
Частота : 48,0 КГц
Битовая глубина : 16 бит
Метод сжатия : С потерями
Размер потока : 125 Мбайт (8%)
Выравнивание : Разделение по промежуткам
Продолжительность промежутка : 42 мс. (1,00 видеокадр)
Время предзагрузки промежутка : 500 мс.

pb.wtf



Скачать Идеальный дом через торрент http://c.radikal.ru/c42/1809/5a/d870313982fa.png Скачать фильм Идеальный дом через торрент бесплантно в хорошем качестве Описание: Эрасмус и Пол живут весёлой и беззаботной жизнью, пока на пороге не возникает 10-летний парень — по его собственному заверению, ... 6.1 10 7
Торрент: Зарегистрирован [2018-09-10 08:54] · скачан: 269 раз
Статус: T временная
Размер: 1.46 GB
Как cкачать? Как скачать Идеальный дом через торрент | qTorrent

% Раздел Тема Автор DL S | L
T Фильмы 2018 [DVDrip, WEB-DLRip, HDrip] (DUB, MVO) [ 1.58 GB ] Идеальный дом / Ideal Home [2018 WEB-DLRip-AVC] [MVO] killermax2013 Скачать
1 | 0

28-11-2019 20:33  

Отключить всю рекламу на сайте

11-09-2018 10:02 Идеальный дом Скачать торрент  

комедия про двух пидарасов, Боже,куда катятся релизеры подобного днища ладно,такие же снимают ,но для кого это выкладывают ????pb.wtf



    Дорогой пользователь! Огромная просьба, поблагодарите релизера, оцените раздачу и оставьте свои комментарий, если Вы скачали Идеальный дом через торрент бесплатно! Внесите свою лепту в развитие PiratBit!
    Комментировать посты могут только пользователи прошедшие не сложную регистрацию
    Показать сообщения:    

    Идеальный дом через торрент
    Скачать бесплатно Идеальный дом
    Идеальный дом скачать торрент
    Идеальный дом смотреть онлайн
    Cкачать фильм Идеальный дом бесплатно
    Идеальный дом скачать торрент в хорошем качестве
    Идеальный дом смотреть онлайн бесплатно в хорошем качестве


    Вы не можете начинать темы
    Вы не можете отвечать на сообщения
    Вы не можете редактировать свои сообщения
    Вы не можете удалять свои сообщения
    Вы не можете голосовать в опросах
    Вы не можете прикреплять файлы к сообщениям
    Вы можете скачивать файлы