Всегда рабочее зеркало без VPN и Proxy просто перед .vidak.icu напиши любое слово или цифру, Пример http://7hs5.vidak.icu

Лицензия

MVO

1 сезон

1

1 сезон

iTunes

1 сезон

13

1 сезон

Deluxe

pack

Рекомендуем

Repack

30

ВАЖНО

RePack

MK11

RePack

jed

RePack

fifa19

RePack

RDR2

RePack

NEED FOR SPEED™ PAYBACK

Кинопоиск HD

6 сезон

 Острые козырьки 6 сезон

Все сериалы

все сериалы на PB.wtf

RePack

FAR CRY 5
  
Magnet ссылка

Плохие парни 2 / Bad Boys II (Майкл Бэй) [2003, боевик, триллер, драма, UHD BDRip 2160p] DUB (rus, ukr) + 3xAVO + MVO + DVO + VO pb.wtf

Плохие парни 2 через торрент pb.wtf

Размер: 39.4 GB | Добавлен: 3 года 11 мес. назад | Торрент скачан:83 раза
Смотреть онлайн Плохие парни 2 | Скачать    Ребята, помогите собрать деньги на оплату серверов!!!

10-09-2018 13:50 Плохие парни 2 Скачать торрент  

Плохие парни 2 / Bad Boys II

Год выпуска: 2003
Страна: США
Жанр: боевик, триллер, драма, комедия, криминал
Продолжительность: 02:26:44
Перевод: Дублированный, профессиональный многоголосый, профессиональный двухголосый, авторский, любительский одноголосый
Субтитры: Русские, английские, французские, немецкие, греческие, польские, португальские, испанские
Режиссер: Майкл Бэй
В ролях:

Уилл Смит (Detective Mike Lowrey), Мартин Лоуренс (Detective Marcus Burnett), Гэбриэл Юнион (Syd), Хорди Молья (Hector Juan Carlos «Johnny» Tapia), Петер Стормаре (Alexei), Тереза Рэндл (Theresa), Джо Пантольяно (Captain Howard), Майкл Шеннон (Floyd Poteet), Джон Седа (Roberto), Юл Васкес (Detective Mateo Reyes), Олег Тактаров (Josef), Отто Санчес (Carlos)
Описание:
Детективы Майк Лоури и Маркус Бэрнетт получают задание расследовать схему доставки нового наркотика в Майами. Но про эти амбициозные планы узнают и остальные игроки нелегального рынка, в результате чего вспыхивает настоящая война. А ситуация начинает совсем выходить из-под контроля, когда Майк не на шутку увлекается сестрой Маркуса, Сидни.
Рейтинг:

MPAA: R - Лицам до 17 лет обязательно присутствие взрослого
Качество: UHD BDRip 2160p
Формат: MKV
Видео: HEVC, HDR, 29.9 Mбит/с, 3840x1608, 23.976 Кадр/с
Аудио #1: Russian: 48 kHz, AC3, 3/2 (L,C,R,l,r) + LFE ch, ~448 kbps | Дубляж
Аудио #2: Russian: 48 kHz, AC3, 3/2 (L,C,R,l,r) + LFE ch, ~384 kbps | Многоголосый закадровый, CDV
Аудио #3: Russian: 48 kHz, AC3, 3/2 (L,C,R,l,r) + LFE ch, ~384 kbps | Двухголосый закадровый
Аудио #4: Russian: 48 kHz/16-bit, DTS 5.1, ~1509 kbps | Одноголосый закадровый, Гаврилов
Аудио #5: Russian: 48 kHz/16-bit, DTS 5.1, ~1509 kbps | Одноголосый закадровый, Живов
Аудио #6: Russian: 48 kHz/16-bit, DTS 5.1, ~1509 kbps | Одноголосый закадровый, Яроцкий
Аудио #7: Russian: 48 kHz, AC3, 2/0 (L,R) ch, ~192 kbps | Одноголосый закадровый
Аудио #8: Ukranian: 48 kHz, AC3, 2/0 (L,R) ch, ~192 kbps |Дубляж, ТК "Інтер"
Аудио #9: English: 48 kHz/16-bit, DTS 5.1, ~1509 kbps |Оригинал
Аудио #10: English: 48 kHz AC3, 5.1, ~640 kbps |Оригинал
Навигация по главам: есть
Complete name : E:\Movies\Bad.Boys.II.2003.INTERNAL.2160p.UHD.BluRay.X265.10bit.HDR-SpaceHD13.mkv
Format : Matroska
Format version : Version 4 / Version 2
File size : 39.4 GiB
Duration : 2 h 26 min
Overall bit rate : 38.4 Mb/s
Movie name : Bad.Boys.II.2003.INTERNAL.2160p.UHD.BluRay.X265.10bit.HDR-SpaceHD13
Encoded date : UTC 2018-09-09 15:42:01
Writing application : mkvmerge v25.0.0 ('Prog Noir') 64-bit
Writing library : libebml v1.3.6 + libmatroska v1.4.9

Video
ID : 1
Format : HEVC
Format/Info : High Efficiency Video Coding
Commercial name : HDR10
Format profile : Main [email protected]@High
Codec ID : V_MPEGH/ISO/HEVC
Duration : 2 h 26 min
Bit rate : 29.9 Mb/s
Width : 3 840 pixels
Height : 1 608 pixels
Display aspect ratio : 2.40:1
Frame rate mode : Constant
Frame rate : 23.976 (24000/1001) FPS
Color space : YUV
Chroma subsampling : 4:2:0 (Type 2)
Bit depth : 10 bits
Bits/(Pixel*Frame) : 0.202
Stream size : 30.7 GiB (78%)
Title : Bad.Boys.II.2003.INTERNAL.2160p.UHD.BluRay.X265.10bit.HDR-SpaceHD13
Writing library : x265 2.8+10-703eade86b53:[Windows][MSVC 1914][64 bit] 10bit
Encoding settings : cpuid=1111039 / frame-threads=5 / numa-pools=36 / wpp / no-pmode / no-pme / no-psnr / no-ssim / log-level=2 / input-csp=1 / input-res=3840x1608 / interlace=0 / total-frames=211128 / level-idc=51 / high-tier=1 / uhd-bd=0 / ref=4 / no-allow-non-conformance / repeat-headers / annexb / aud / hrd / info / hash=0 / no-temporal-layers / no-open-gop / min-keyint=1 / keyint=24 / gop-lookahead=0 / bframes=4 / b-adapt=2 / b-pyramid / bframe-bias=0 / rc-lookahead=25 / lookahead-slices=4 / scenecut=40 / radl=0 / no-intra-refresh / ctu=64 / min-cu-size=8 / rect / no-amp / max-tu-size=32 / tu-inter-depth=1 / tu-intra-depth=1 / limit-tu=0 / rdoq-level=2 / dynamic-rd=0.00 / no-ssim-rd / signhide / no-tskip / nr-intra=0 / nr-inter=0 / no-constrained-intra / no-strong-intra-smoothing / max-merge=3 / limit-refs=3 / limit-modes / me=3 / subme=3 / merange=57 / temporal-mvp / weightp / no-weightb / no-analyze-src-pics / deblock=-3:-3 / no-sao / no-sao-non-deblock / rd=4 / no-early-skip / rskip / no-fast-intra / no-tskip-fast / no-cu-lossless / no-b-intra / no-splitrd-skip / rdpenalty=0 / psy-rd=2.00 / psy-rdoq=1.00 / no-rd-refine / no-lossless / cbqpoffs=0 / crqpoffs=0 / rc=crf / crf=19.5 / qcomp=0.60 / qpstep=4 / stats-write=0 / stats-read=0 / vbv-maxrate=160000 / vbv-bufsize=160000 / vbv-init=0.9 / crf-max=0.0 / crf-min=0.0 / ipratio=1.40 / pbratio=1.30 / aq-mode=1 / aq-strength=1.00 / cutree / zone-count=0 / no-strict-cbr / qg-size=32 / no-rc-grain / qpmax=69 / qpmin=0 / no-const-vbv / sar=1 / overscan=0 / videoformat=5 / range=0 / colorprim=9 / transfer=16 / colormatrix=9 / chromaloc=1 / chromaloc-top=2 / chromaloc-bottom=2 / display-window=0 / master-display=G(13250,34500)B(7500,3000)R(34000,16000)WP(15635,16450)L(40000000,50) / max-cll=10000,1367 / min-luma=0 / max-luma=1023 / log2-max-poc-lsb=8 / vui-timing-info / vui-hrd-info / slices=1 / no-opt-qp-pps / no-opt-ref-list-length-pps / no-multi-pass-opt-rps / scenecut-bias=0.05 / no-opt-cu-delta-qp / no-aq-motion / hdr / hdr-opt / no-dhdr10-opt / no-idr-recovery-sei / analysis-reuse-level=5 / scale-factor=0 / refine-intra=0 / refine-inter=0 / refine-mv=0 / no-limit-sao / ctu-info=0 / no-lowpass-dct / refine-mv-type=0 / copy-pic=1 / max-ausize-factor=1.0 / no-dynamic-refine / no-single-sei
Default : Yes
Forced : No
Color range : Limited
Color primaries : BT.2020
Transfer characteristics : PQ
Matrix coefficients : BT.2020 non-constant
Mastering display color pri : Display P3
Mastering display luminance : min: 0.0050 cd/m2, max: 4000 cd/m2
Maximum Content Light Level : 10000 cd/m2
Maximum Frame-Average Light : 1367 cd/m2

Audio #1
ID : 2
Format : AC-3
Format/Info : Audio Coding 3
Codec ID : A_AC3
Duration : 2 h 26 min
Bit rate mode : Constant
Bit rate : 448 kb/s
Channel(s) : 6 channels
Channel positions : Front: L C R, Side: L R, LFE
Sampling rate : 48.0 kHz
Frame rate : 31.250 FPS (1536 SPF)
Bit depth : 16 bits
Compression mode : Lossy
Delay relative to video : 1 s 0 ms
Stream size : 470 MiB (1%)
Title : Bad.Boys.II.2003.INTERNAL.2160p.UHD.BluRay.X265.10bit.HDR-SpaceHD13[Dub]
Language : Russian
Service kind : Complete Main
Default : Yes
Forced : No

Audio #2
ID : 3
Format : AC-3
Format/Info : Audio Coding 3
Codec ID : A_AC3
Duration : 2 h 26 min
Bit rate mode : Constant
Bit rate : 384 kb/s
Channel(s) : 6 channels
Channel positions : Front: L C R, Side: L R, LFE
Sampling rate : 48.0 kHz
Frame rate : 31.250 FPS (1536 SPF)
Bit depth : 16 bits
Compression mode : Lossy
Delay relative to video : 1 s 0 ms
Stream size : 403 MiB (1%)
Title : Bad.Boys.II.2003.INTERNAL.2160p.UHD.BluRay.X265.10bit.HDR-SpaceHD13[Многоголосый закадровый, CDV]
Language : Russian
Service kind : Complete Main
Default : No
Forced : No

Audio #3
ID : 4
Format : AC-3
Format/Info : Audio Coding 3
Codec ID : A_AC3
Duration : 2 h 26 min
Bit rate mode : Constant
Bit rate : 384 kb/s
Channel(s) : 6 channels
Channel positions : Front: L C R, Side: L R, LFE
Sampling rate : 48.0 kHz
Frame rate : 31.250 FPS (1536 SPF)
Bit depth : 16 bits
Compression mode : Lossy
Delay relative to video : 1 s 0 ms
Stream size : 403 MiB (1%)
Title : Bad.Boys.II.2003.INTERNAL.2160p.UHD.BluRay.X265.10bit.HDR-SpaceHD13[Двухголосый закадровый]
Language : Russian
Service kind : Complete Main
Default : No
Forced : No

Audio #4
ID : 5
Format : DTS
Format/Info : Digital Theater Systems
Codec ID : A_DTS
Duration : 2 h 26 min
Bit rate mode : Constant
Bit rate : 1 509 kb/s
Channel(s) : 6 channels
Channel positions : Front: L C R, Side: L R, LFE
Sampling rate : 48.0 kHz
Frame rate : 93.750 FPS (512 SPF)
Bit depth : 16 bits
Compression mode : Lossy
Delay relative to video : 1 s 0 ms
Stream size : 1.55 GiB (4%)
Title : Bad.Boys.II.2003.INTERNAL.2160p.UHD.BluRay.X265.10bit.HDR-SpaceHD13[Одноголосый закадровый, Гаврилов]
Language : Russian
Default : No
Forced : No

Audio #5
ID : 6
Format : DTS
Format/Info : Digital Theater Systems
Codec ID : A_DTS
Duration : 2 h 26 min
Bit rate mode : Constant
Bit rate : 1 509 kb/s
Channel(s) : 6 channels
Channel positions : Front: L C R, Side: L R, LFE
Sampling rate : 48.0 kHz
Frame rate : 93.750 FPS (512 SPF)
Bit depth : 16 bits
Compression mode : Lossy
Delay relative to video : 1 s 0 ms
Stream size : 1.55 GiB (4%)
Title : Bad.Boys.II.2003.INTERNAL.2160p.UHD.BluRay.X265.10bit.HDR-SpaceHD13[Одноголосый закадровый, Живов]
Language : Russian
Default : No
Forced : No

Audio #6
ID : 7
Format : DTS
Format/Info : Digital Theater Systems
Codec ID : A_DTS
Duration : 2 h 26 min
Bit rate mode : Constant
Bit rate : 1 509 kb/s
Channel(s) : 6 channels
Channel positions : Front: L C R, Side: L R, LFE
Sampling rate : 48.0 kHz
Frame rate : 93.750 FPS (512 SPF)
Bit depth : 16 bits
Compression mode : Lossy
Delay relative to video : 1 s 0 ms
Stream size : 1.55 GiB (4%)
Title : Bad.Boys.II.2003.INTERNAL.2160p.UHD.BluRay.X265.10bit.HDR-SpaceHD13[Одноголосый закадровый|Яроцкий]
Language : Russian
Default : No
Forced : No

Audio #7
ID : 8
Format : AC-3
Format/Info : Audio Coding 3
Codec ID : A_AC3
Duration : 2 h 26 min
Bit rate mode : Constant
Bit rate : 192 kb/s
Channel(s) : 2 channels
Channel positions : Front: L R
Sampling rate : 48.0 kHz
Frame rate : 31.250 FPS (1536 SPF)
Bit depth : 16 bits
Compression mode : Lossy
Delay relative to video : 1 s 0 ms
Stream size : 202 MiB (0%)
Title : Bad.Boys.II.2003.INTERNAL.2160p.UHD.BluRay.X265.10bit.HDR-SpaceHD13[Одноголосый закадровый]
Language : Russian
Service kind : Complete Main
Default : No
Forced : No

Audio #8
ID : 9
Format : AC-3
Format/Info : Audio Coding 3
Codec ID : A_AC3
Duration : 2 h 26 min
Bit rate mode : Constant
Bit rate : 192 kb/s
Channel(s) : 2 channels
Channel positions : Front: L R
Sampling rate : 48.0 kHz
Frame rate : 31.250 FPS (1536 SPF)
Bit depth : 16 bits
Compression mode : Lossy
Delay relative to video : 1 s 0 ms
Stream size : 202 MiB (0%)
Title : Bad.Boys.II.2003.INTERNAL.2160p.UHD.BluRay.X265.10bit.HDR-SpaceHD13[Дубляж, ТК "Інтер"]
Language : Ukrainian
Service kind : Complete Main
Default : No
Forced : No

Audio #9
ID : 10
Format : DTS
Format/Info : Digital Theater Systems
Codec ID : A_DTS
Duration : 2 h 26 min
Bit rate mode : Constant
Bit rate : 1 509 kb/s
Channel(s) : 6 channels
Channel positions : Front: L C R, Side: L R, LFE
Sampling rate : 48.0 kHz
Frame rate : 93.750 FPS (512 SPF)
Bit depth : 16 bits
Compression mode : Lossy
Delay relative to video : 1 s 0 ms
Stream size : 1.55 GiB (4%)
Title : Bad.Boys.II.2003.INTERNAL.2160p.UHD.BluRay.X265.10bit.HDR-SpaceHD13
Language : English
Default : No
Forced : No

Audio #10
ID : 11
Format : AC-3
Format/Info : Audio Coding 3
Codec ID : A_AC3
Duration : 2 h 26 min
Bit rate mode : Constant
Bit rate : 640 kb/s
Channel(s) : 6 channels
Channel positions : Front: L C R, Side: L R, LFE
Sampling rate : 48.0 kHz
Frame rate : 31.250 FPS (1536 SPF)
Bit depth : 16 bits
Compression mode : Lossy
Stream size : 672 MiB (2%)
Title : Bad.Boys.II.2003.INTERNAL.2160p.UHD.BluRay.X265.10bit.HDR-SpaceHD13
Language : English
Service kind : Complete Main
Default : No
Forced : No

Text #1
ID : 12
Format : PGS
Muxing mode : zlib
Codec ID : S_HDMV/PGS
Codec ID/Info : Picture based subtitle format used on BDs/HD-DVDs
Duration : 5 s 520 ms
Bit rate : 56.9 kb/s
Count of elements : 4
Stream size : 38.3 KiB (0%)
Title : English Forced
Language : English
Default : Yes
Forced : No

Text #2
ID : 13
Format : PGS
Muxing mode : zlib
Codec ID : S_HDMV/PGS
Codec ID/Info : Picture based subtitle format used on BDs/HD-DVDs
Duration : 2 h 25 min
Bit rate : 45.2 kb/s
Count of elements : 4512
Stream size : 47.0 MiB (0%)
Title : English SDH
Language : English
Default : No
Forced : No

Text #3
ID : 14
Format : PGS
Muxing mode : zlib
Codec ID : S_HDMV/PGS
Codec ID/Info : Picture based subtitle format used on BDs/HD-DVDs
Duration : 2 h 20 min
Bit rate : 40.2 kb/s
Count of elements : 3824
Stream size : 40.3 MiB (0%)
Language : English
Default : No
Forced : No

Text #4
ID : 15
Format : PGS
Muxing mode : zlib
Codec ID : S_HDMV/PGS
Codec ID/Info : Picture based subtitle format used on BDs/HD-DVDs
Duration : 2 h 25 min
Bit rate : 45.2 kb/s
Count of elements : 4512
Stream size : 47.0 MiB (0%)
Language : English
Default : No
Forced : No

Text #5
ID : 16
Format : PGS
Muxing mode : zlib
Codec ID : S_HDMV/PGS
Codec ID/Info : Picture based subtitle format used on BDs/HD-DVDs
Duration : 5 s 520 ms
Bit rate : 56.9 kb/s
Count of elements : 4
Stream size : 38.3 KiB (0%)
Language : English
Default : No
Forced : No

Text #6
ID : 17
Format : PGS
Muxing mode : zlib
Codec ID : S_HDMV/PGS
Codec ID/Info : Picture based subtitle format used on BDs/HD-DVDs
Duration : 2 h 20 min
Bit rate : 40.2 kb/s
Count of elements : 3832
Stream size : 40.3 MiB (0%)
Language : English
Default : No
Forced : No

Text #7
ID : 18
Format : PGS
Muxing mode : zlib
Codec ID : S_HDMV/PGS
Codec ID/Info : Picture based subtitle format used on BDs/HD-DVDs
Duration : 2 h 25 min
Bit rate : 27.0 kb/s
Count of elements : 3586
Stream size : 28.1 MiB (0%)
Language : French
Default : No
Forced : No

Text #8
ID : 19
Format : PGS
Muxing mode : zlib
Codec ID : S_HDMV/PGS
Codec ID/Info : Picture based subtitle format used on BDs/HD-DVDs
Duration : 57 min 30 s
Bit rate : 239 b/s
Count of elements : 14
Stream size : 101 KiB (0%)
Language : French
Default : No
Forced : No

Text #9
ID : 20
Format : PGS
Muxing mode : zlib
Codec ID : S_HDMV/PGS
Codec ID/Info : Picture based subtitle format used on BDs/HD-DVDs
Duration : 2 h 21 min
Bit rate : 44.1 kb/s
Count of elements : 3951
Stream size : 44.5 MiB (0%)
Language : German
Default : No
Forced : No

Text #10
ID : 21
Format : PGS
Muxing mode : zlib
Codec ID : S_HDMV/PGS
Codec ID/Info : Picture based subtitle format used on BDs/HD-DVDs
Duration : 2 h 21 min
Bit rate : 35.3 kb/s
Count of elements : 3738
Stream size : 35.6 MiB (0%)
Language : Greek
Default : No
Forced : No

Text #11
ID : 22
Format : PGS
Muxing mode : zlib
Codec ID : S_HDMV/PGS
Codec ID/Info : Picture based subtitle format used on BDs/HD-DVDs
Duration : 2 h 21 min
Bit rate : 31.3 kb/s
Count of elements : 3764
Stream size : 31.6 MiB (0%)
Language : Polish
Default : No
Forced : No

Text #12
ID : 23
Format : PGS
Muxing mode : zlib
Codec ID : S_HDMV/PGS
Codec ID/Info : Picture based subtitle format used on BDs/HD-DVDs
Duration : 2 h 21 min
Bit rate : 31.0 kb/s
Count of elements : 3738
Stream size : 31.3 MiB (0%)
Language : Portuguese
Default : No
Forced : No

Text #13
ID : 24
Format : PGS
Muxing mode : zlib
Codec ID : S_HDMV/PGS
Codec ID/Info : Picture based subtitle format used on BDs/HD-DVDs
Duration : 2 h 26 min
Bit rate : 38.2 kb/s
Count of elements : 3792
Stream size : 39.9 MiB (0%)
Language : Portuguese
Default : No
Forced : No

Text #14
ID : 25
Format : PGS
Muxing mode : zlib
Codec ID : S_HDMV/PGS
Codec ID/Info : Picture based subtitle format used on BDs/HD-DVDs
Duration : 2 h 21 min
Bit rate : 41.9 kb/s
Count of elements : 3964
Stream size : 42.3 MiB (0%)
Language : Russian
Default : No
Forced : No

Text #15
ID : 26
Format : PGS
Muxing mode : zlib
Codec ID : S_HDMV/PGS
Codec ID/Info : Picture based subtitle format used on BDs/HD-DVDs
Duration : 2 h 21 min
Bit rate : 34.3 kb/s
Count of elements : 3952
Stream size : 34.6 MiB (0%)
Language : Spanish
Default : No
Forced : No

Text #16
ID : 27
Format : PGS
Muxing mode : zlib
Codec ID : S_HDMV/PGS
Codec ID/Info : Picture based subtitle format used on BDs/HD-DVDs
Duration : 2 h 21 min
Bit rate : 37.3 kb/s
Count of elements : 3904
Stream size : 37.6 MiB (0%)
Language : Spanish
Default : No
Forced : No

Menu
00:00:00.000 : en:00:00:00.000
00:11:05.498 : en:00:11:05.498
00:21:55.397 : en:00:21:55.397
00:39:55.768 : en:00:39:55.768
00:45:28.684 : en:00:45:28.684
00:53:28.789 : en:00:53:28.789
00:59:02.247 : en:00:59:02.247
01:06:27.066 : en:01:06:27.066
01:11:29.619 : en:01:11:29.619
01:17:54.169 : en:01:17:54.169
01:30:28.131 : en:01:30:28.131
01:37:39.228 : en:01:37:39.228
01:45:54.765 : en:01:45:54.765
01:56:47.626 : en:01:56:47.626
02:05:08.584 : en:02:05:08.584
02:16:07.701 : en:02:16:07.701
pb.wtf



Скачать Плохие парни 2 через торрент https://c.radikal.ru/c40/1809/83/ad2a2b9b19b6.png Скачать, смотреть онлайн Плохие парни 2 бесплантно в хорошем качестве Описание: Детективы Майк Лоури и Маркус Бэрнетт получают задание расследовать схему доставки нового наркотика в Майами. Но про эти ... 10 10 3
Info! Золотая раздача, скачанное не засчитывается.
Торрент: Зарегистрирован [2018-09-10 13:50] · скачан: 83 раз
Статус: √ проверено
Размер: 39.4 GB
Как cкачать? Как скачать Плохие парни 2 через торрент | UTorrent

% Раздел Тема Автор DL S | L
Фильмы (WEB-DL 720p, 1080p) [ 22.03 GB ] Плохие парни 2 / Bad Boys II [2003 WEB-DL 1080p] [Open Matte] Dub+MVO+DVO+ 2xAVO+VO bober100 Скачать
1 | 0
Ultra HD (UHD: 2K, 4K, 8K) — видео сверхвысокой чёткости [ 70.5 GB ] Плохие парни 2 / Bad Boys II [2003 UHD BD Remux 2160p] [HDR] MVO+DVO+3xAVO+VO+DUB [] bober100 Скачать
1 | 0
Фильмы [HD 720p, 1080p] (Хороший звук DUB, MVO) [ 10.79 GB ] Плохие парни 2 / Bad Boys II [2003 BDRip-HEVC 1080p ] DUB+MVO+2xAVO bober100 Скачать
1 | 0


Последний раз редактировалось: sheker187 (2018-09-10 16:24), всего редактировалось 1 раз

28-11-2019 20:33  

Отключить вcю реклaмy на сайте

    Дорогой пользователь! Огромная просьба, поблагодарите релизера, оцените раздачу и оставьте свои комментарий, если Вы скачали Плохие парни 2 через торрент бесплатно!
    Комментировать посты могут только пользователи прошедшие не сложную регистрацию
    Показать сообщения:    

    Плохие парни 2 через торрент
    Скачать бесплатно Плохие парни 2
    Плохие парни 2 скачать торрент
    Плохие парни 2 смотреть онлайн
    Cкачать фильм Плохие парни 2 бесплатно
    Плохие парни 2 скачать торрент в хорошем качестве
    Плохие парни 2 смотреть онлайн бесплатно в хорошем качестве


    Вы не можете начинать темы
    Вы не можете отвечать на сообщения
    Вы не можете редактировать свои сообщения
    Вы не можете удалять свои сообщения
    Вы не можете голосовать в опросах
    Вы не можете прикреплять файлы к сообщениям
    Вы можете скачивать файлы