>

7.4

iTunes

7.4

2 сезон

9.4

1 сезон

1

7.4

2 сезон

7.2

iTunes

6.0

MVO

13

6.1

iTunes

8.3

Пиратка

30

ULTIMATE

pack

9.9

Лицензия

ВАЖНО

ИГРА 18+

pack

7.3

RePack

MK11

7.7

RePack

jed

7.8

RePack

fifa19

8.5

RePack

RDR2

RePack

NEED FOR SPEED™ PAYBACK

1 сезон

9 сезон

Бесстыжие 9 сезон

Все сериалы

все сериалы на PB.wtf

RePack

FAR CRY 5

Anonymous, доброй ночи, мы катастрофически не успеваем собрать деньги на оплату серверов, помогите нам пожалуйста 5,10,15р., для нас важна любая помощь . В качестве благодарности мы отключим Вам всю рекламу на сайте (укажите свой ник в строку Ваше имя)!

×
  
Magnet ссылка

Дикари / Selvaggi (Карло Ванцина) [1995 г., комедия, приключения, WEB-DLRip-AVC] AVO [Владимир Штейн] pb.wtf

Дикари через торрент pb.wtf

Раздают: 1 [ 0 KB/s ]
Размер: 2.06 GB | Добавлен: 3 года 4 мес. назад | Торрент скачан:44 раза
Смотреть онлайн Дикари | Скачать    Ребята, помогите собрать деньги на оплату серверов!!!

10-09-2018 20:17 Дикари Скачать торрент  

Дикари / Selvaggi
Год выпуска: 1995

Страна: Италия

Жанр: Комедия, приключения

Продолжительность: 01:27:14

Перевод: Авторский (одноголосый) Владимир Штейн

Режиссер: Карло Ванцина

rating

В ролях: Эцио Греджо, Лео Гульотта, Антонелло Фассари, Моника Скаттини, Чинция Леоне, Эмилио Солфрицци, Кармела Винченти, Кэш Касия, Мишель Меркин, Франко Оппини, Исаак Джордж, Паоло Томей, Маргерита Воло, Маргерита Суппини, Антонио Мелидони

Описание: Героев этой великолепной комедии связывает вместе слепой случай. Авиалайнер, на котором они летели, терпит крушение, и вся группа «туристов» оказывается на необитаемом острове в Карибском море. Новоявленные робинзоны, привыкшие к уюту и цивилизации, вынуждены проявлять изобретательность, чтобы приспособиться к новым условиям и найти способ возвращения домой…

Качество: WEB-DLRip-AVC

Формат: MKV

Видео кодек: MPEG-4 AVC

Аудио кодек: AC3

Видео: MPEG-4 AVC, 2970 Кбит/с, 1152x624
Аудио#1: Русский, AC3, 2 ch, 224 Кбит/с
Аудио#2: Итальянский, АС3, 2 ch, 192 Кбит/с
Видео
Идентификатор : 1
Формат : AVC
Формат/Информация : Advanced Video Codec
Профиль формата : High@L4.1
Настройки формата : CABAC / 11 Ref Frames
Параметр CABAC формата : Да
Параметр RefFrames формата : 11 кадров
Идентификатор кодека : V_MPEG4/ISO/AVC
Продолжительность : 1 ч. 27 м.
Битрейт : 2970 Кбит/сек
Ширина : 1152 пикселя
Высота : 624 пикселя
Соотношение сторон : 1,85:1
Режим частоты кадров : Постоянный
Частота кадров : 25,000 кадров/сек
Цветовое пространство : YUV
Субдискретизация насыщенности : 4:2:0
Битовая глубина : 8 бит
Тип развёртки : Прогрессивная
Бит/(Пиксели*Кадры) : 0.165
Размер потока : 1,81 Гбайт (88%)
Библиотека кодирования : x264 core 146 r2538 121396c
Настройки программы : cabac=1 / ref=11 / deblock=1:0:0 / analyse=0x3:0x133 / me=umh / subme=10 / psy=1 / psy_rd=1.00:0.00 / mixed_ref=1 / me_range=24 / chroma_me=1 / trellis=2 / 8x8dct=1 / cqm=0 / deadzone=21,11 / fast_pskip=1 / chroma_qp_offset=-2 / threads=48 / lookahead_threads=4 / sliced_threads=0 / nr=0 / decimate=1 / interlaced=0 / bluray_compat=0 / constrained_intra=0 / bframes=8 / b_pyramid=2 / b_adapt=2 / b_bias=0 / direct=3 / weightb=1 / open_gop=0 / weightp=2 / keyint=250 / keyint_min=25 / scenecut=40 / intra_refresh=0 / rc_lookahead=60 / rc=2pass / mbtree=1 / bitrate=2970 / ratetol=1.0 / qcomp=0.60 / qpmin=0 / qpmax=69 / qpstep=4 / cplxblur=20.0 / qblur=0.5 / ip_ratio=1.40 / aq=1:1.00
Язык : Italian
Default : Да
Forced : Нет

Аудио #1
Идентификатор : 2
Формат : AC-3
Формат/Информация : Audio Coding 3
Идентификатор кодека : A_AC3
Продолжительность : 1 ч. 27 м.
Вид битрейта : Постоянный
Битрейт : 224 Кбит/сек
Каналы : 2 канала
Расположение каналов : Front: L R
Частота : 44,1 КГц
Частота кадров : 28,711 кадров/сек (1536 SPF)
Битовая глубина : 16 бит
Метод сжатия : С потерями
Размер потока : 140 Мбайт (7%)
Язык : Russian
ServiceKind/String : Complete Main
Default : Да
Forced : Нет

Аудио #2
Идентификатор : 3
Формат : AC-3
Формат/Информация : Audio Coding 3
Идентификатор кодека : A_AC3
Продолжительность : 1 ч. 27 м.
Вид битрейта : Постоянный
Битрейт : 192 Кбит/сек
Каналы : 2 канала
Расположение каналов : Front: L R
Частота : 48,0 КГц
Частота кадров : 31,250 кадров/сек (1536 SPF)
Битовая глубина : 16 бит
Метод сжатия : С потерями
Размер потока : 120 Мбайт (6%)
Язык : Italian
ServiceKind/String : Complete Main
Default : Нет
Forced : Нет


pb.wtf



Скачать Дикари через торрент https://pic1.kartinco.top/images/11/5g85a.jpg Скачать, смотреть онлайн Дикари бесплантно в хорошем качестве Описание: Героев этой великолепной комедии связывает вместе слепой случай. Авиалайнер, на котором они летели, терпит крушение, и вся группа ... 10 10 3
Торрент: Зарегистрирован [2018-09-10 20:17] · скачан: 44 раз
Статус: √ проверено
Размер: 2.06 GB
Как cкачать? Как скачать Дикари через торрент | UTorrent

28-11-2019 20:33  

Отключить всю рекламу на сайте

11-09-2018 09:42 Дикари Скачать торрент  

Топик был перенесен из форума Оформление раздач (Кино, Видео и ТВ) в форум Фильмы с авторской озвучкой


-Lexx-pb.wtf



    Дорогой пользователь! Огромная просьба, поблагодарите релизера, оцените раздачу и оставьте свои комментарий, если Вы скачали Дикари через торрент бесплатно!
    Комментировать посты могут только пользователи прошедшие не сложную регистрацию
    Показать сообщения:    

    Дикари через торрент
    Скачать бесплатно Дикари
    Дикари скачать торрент
    Дикари смотреть онлайн
    Cкачать фильм Дикари бесплатно
    Дикари скачать торрент в хорошем качестве
    Дикари смотреть онлайн бесплатно в хорошем качестве


    Вы не можете начинать темы
    Вы не можете отвечать на сообщения
    Вы не можете редактировать свои сообщения
    Вы не можете удалять свои сообщения
    Вы не можете голосовать в опросах
    Вы не можете прикреплять файлы к сообщениям
    Вы можете скачивать файлы