Всегда рабочее зеркало без VPN и Proxy просто перед .vidak.icu напиши любое слово или цифру, Пример http://kddg.vidak.icu

MVO

2 сезон

2 сезон

1

1 сезон

iTunes

2 сезон

13

1 сезон

Распродажа

pack

Рекомендуем

Пиратка

30

ВАЖНО

RePack

MK11

RePack

jed

RePack

fifa19

RePack

RDR2

RePack

NEED FOR SPEED™ PAYBACK

Кинопоиск HD

6 сезон

 Острые козырьки 6 сезон

Все сериалы

все сериалы на PB.wtf

RePack

FAR CRY 5

Anonymous, нам критически не хватает 5601 руб. на оплату серверов и переферии за Апрель, помоги нам пожалуйста, вся надежда только на тебя. В благодарность мы отключим тебе всю рекламу на сайте!

×
  
Magnet ссылка

Особо опасен / Wanted (Тимур Бекмамбетов) [2008, фэнтези, боевик, триллер, WEB-DL 1080p] [Open Matte] DUB (rus, ukr) + AVO [Гаврилов] [AMZN Version] pb.wtf

Особо опасен через торрент pb.wtf

Размер: 12.96 GB | Добавлен: 3 года 8 мес. назад | Торрент скачан:176 раз
Смотреть онлайн Особо опасен | Скачать    Ребята, помогите собрать деньги на оплату серверов!!!

11-09-2018 03:00 Особо опасен Скачать торрент  

Особо опасен / Wanted«Выбери свою судьбу»
Год выпуска: 2008
Страна: США, Германия
Жанр: фэнтези, боевик, триллер, криминал
Продолжительность: 01:50:02
Перевод: Дублированный, авторский
Субтитры: Русские, английские
Режиссер: Тимур Бекмамбетов
В ролях:

Джеймс МакЭвой (Wesley), Анджелина Джоли (Fox), Морган Фриман (Sloan), Теренс Стэмп (Pekwarsky), Томас Кречман (Cross), Коммон (The Gunsmith), Марк Уоррен (The Repairman), Дато Бахтадзе (The Butcher), Крис Пратт (Barry), Константин Хабенский (The Exterminator), Кристен Хагер (Cathy), Дэвид О’Хара (Mr. X)
Описание:
Уэсли Гибсон - зануда и нытик, целыми днями торчащий в офисе. Босс его унижает, подружка ему изменяет. Его жизнь катится в никуда! Обнаружив, что отец, бросивший его в раннем детстве, зверски убит, Уэс оказывается втянут в тайное общество киллеров под названием «Братство». За его обучение берется опытная наставница Фокс, и этот когда-то прикованный к офисному креслу хлюпик развивает молниеносную реакцию и сверхчеловеческую скорость. Однако уже на первом задании Уэсли понимает: есть вещи посложнее, чем вершить судьбы других людей. Это - набраться храбрости и стать хозяином собственной жизни.
Рейтинг:

MPAA: R - Лицам до 17 лет обязательно присутствие взрослого
Качество: WEB-DL 1080p | Open Matte | AMZN Version
Формат: MKV
Видео: MPEG-4 AVC, 12508, Кбит/с, 1920x1080, 23.976 кадр/с
Аудио #1: Русский (DTS, 6 ch, 768 Кбит/с) - Дублированный (Blu-ray EUR)
Аудио #2: Русский (DTS, 6 ch, 1510 Кбит/с) - Авторский одноголосый (Гаврилов)
Аудио #3: Украинский (AC3, 6 ch, 384 Кбит/с) - Дублированный (R5)
Аудио #4: Украинский (AC3, 2 ch, 192 Кбит/с) - Профессиональный многоголосый (ТРК Украина)
Аудио #5: Английский (DTS, 6 ch, 1509 Кбит/с) - Оригинал
Навигация по главам: есть
Общее
Уникальный идентификатор : 170476545544624019547250853942608592934 (0x804096A098B637A7A268E972CC3D0026)
Полное имя : D:\ФИЛЬМЫ\Wanted.2008.Open.Matte.1080p.WEB-DL.2xRus.2xUkr.Eng.HDCLUB.mkv
Формат : Matroska
Версия формата : Version 4 / Version 2
Размер файла : 13,0 Гбайт
Продолжительность : 1 ч. 50 м.
Режим общего битрейта : Переменный
Общий поток : 16,9 Мбит/сек
Название фильма : Wanted.2008.Open.Matte.1080p.WEB-DL.2xRus.2xUkr.Eng.HDCLUB-spartanec163
Дата кодирования : UTC 2017-07-30 13:25:54
Программа кодирования : mkvmerge v8.3.0 ('Over the Horizon') 64bit
Библиотека кодирования : libebml v1.3.1 + libmatroska v1.4.2
DURATION : 01:50:01.637000000
NUMBER_OF_FRAMES : 158281
NUMBER_OF_BYTES : 10321830891
_STATISTICS_WRITING_APP : mkvmerge v8.3.0 ('Over the Horizon') 64bit
_STATISTICS_WRITING_DATE_UTC : 2017-07-30 13:25:54
_STATISTICS_TAGS : BPS DURATION NUMBER_OF_FRAMES NUMBER_OF_BYTES

Видео
Идентификатор : 1
Формат : AVC
Формат/Информация : Advanced Video Codec
Профиль формата : High@L4.0
Параметр CABAC формата : Да
Параметр ReFrames формата : 4 кадра
Идентификатор кодека : V_MPEG4/ISO/AVC
Продолжительность : 1 ч. 50 м.
Вид битрейта : Переменный
Битрейт : 12,2 Мбит/сек
Максимальный битрейт : 15,0 Мбит/сек
Ширина : 1920 пикселей
Высота : 1080 пикселей
Соотношение сторон : 16:9
Режим частоты кадров : Постоянный
Частота кадров : 23,976 кадра/сек
Цветовое пространство : YUV
Субдискретизация насыщенности : 4:2:0
Битовая глубина : 8 бит
Тип развёртки : Прогрессивная
Бит/(Пиксели*Кадры) : 0.245
Размер потока : 9,36 Гбайт (72%)
Заголовок : WEB-DL 1080p (Amazon)
Язык : English
Default : Да
Forced : Нет
Основные цвета : BT.709
Характеристики трансфера : BT.709
Коэффициенты матрицы : BT.709

Аудио #1
Идентификатор : 2
Формат : DTS
Формат/Информация : Digital Theater Systems
Режим : 16
Параметр Endianness формата : Big
Идентификатор кодека : A_DTS
Продолжительность : 1 ч. 50 м.
Вид битрейта : Постоянный
Битрейт : 755 Кбит/сек
Каналы : 6 каналов
Расположение каналов : Front: L C R, Side: L R, LFE
Частота : 48,0 КГц
Битовая глубина : 24 бит
Метод сжатия : С потерями
Размер потока : 594 Мбайт (4%)
Заголовок : DTS 5.1 755Kbps (Дубляж)
Язык : Russian
Default : Да
Forced : Нет

Аудио #2
Идентификатор : 3
Формат : DTS
Формат/Информация : Digital Theater Systems
Режим : 16
Параметр Endianness формата : Big
Идентификатор кодека : A_DTS
Продолжительность : 1 ч. 50 м.
Вид битрейта : Постоянный
Битрейт : 1510 Кбит/сек
Каналы : 6 каналов
Расположение каналов : Front: L C R, Side: L R, LFE
Частота : 48,0 КГц
Битовая глубина : 24 бит
Метод сжатия : С потерями
Размер потока : 1,16 Гбайт (9%)
Заголовок : DTS 5.1 1510Kbps (Авторский, одноголосый - А. Гаврилов)
Язык : Russian
Default : Нет
Forced : Нет

Аудио #3
Идентификатор : 4
Формат : AC-3
Формат/Информация : Audio Coding 3
Расширение режима : CM (complete main)
Параметр Endianness формата : Big
Идентификатор кодека : A_AC3
Продолжительность : 1 ч. 50 м.
Вид битрейта : Постоянный
Битрейт : 384 Кбит/сек
Каналы : 6 каналов
Расположение каналов : Front: L C R, Side: L R, LFE
Частота : 48,0 КГц
Битовая глубина : 16 бит
Метод сжатия : С потерями
Размер потока : 302 Мбайт (2%)
Заголовок : AC3 5.1 384Kbps (Дубляж, R5)
Язык : Ukrainian
Default : Нет
Forced : Нет

Аудио #4
Идентификатор : 5
Формат : AC-3
Формат/Информация : Audio Coding 3
Расширение режима : CM (complete main)
Параметр Endianness формата : Big
Идентификатор кодека : A_AC3
Продолжительность : 1 ч. 50 м.
Вид битрейта : Постоянный
Битрейт : 192 Кбит/сек
Каналы : 2 канала
Расположение каналов : Front: L R
Частота : 48,0 КГц
Битовая глубина : 16 бит
Метод сжатия : С потерями
Размер потока : 151 Мбайт (1%)
Заголовок : AC3 2.0 192Kbps (Профессиональный, многоголосый - ТРК Украина)
Язык : Ukrainian
Default : Нет
Forced : Нет

Аудио #5
Идентификатор : 6
Формат : DTS
Формат/Информация : Digital Theater Systems
Режим : 16
Параметр Endianness формата : Big
Идентификатор кодека : A_DTS
Продолжительность : 1 ч. 50 м.
Вид битрейта : Постоянный
Битрейт : 1509 Кбит/сек
Каналы : 6 каналов
Расположение каналов : Front: L C R, Side: L R, LFE
Частота : 48,0 КГц
Битовая глубина : 24 бит
Метод сжатия : С потерями
Размер потока : 1,16 Гбайт (9%)
Заголовок : DTS 5.1 1510Kbps (Оригинал)
Язык : English
Default : Нет
Forced : Нет

Текст #1
Идентификатор : 7
Формат : UTF-8
Идентификатор кодека : S_TEXT/UTF8
Идентификатор кодека/Информация : UTF-8 Plain Text
Заголовок : Captions
Язык : Russian
Default : Да
Forced : Нет

Текст #2
Идентификатор : 8
Формат : UTF-8
Идентификатор кодека : S_TEXT/UTF8
Идентификатор кодека/Информация : UTF-8 Plain Text
Заголовок : Full
Язык : Russian
Default : Нет
Forced : Нет

Текст #3
Идентификатор : 9
Формат : UTF-8
Идентификатор кодека : S_TEXT/UTF8
Идентификатор кодека/Информация : UTF-8 Plain Text
Заголовок : Full
Язык : English
Default : Нет
Forced : Нет

Текст #4
Идентификатор : 10
Формат : UTF-8
Идентификатор кодека : S_TEXT/UTF8
Идентификатор кодека/Информация : UTF-8 Plain Text
Заголовок : Full, SDH
Язык : English
Default : Нет
Forced : Нет

Меню
00:00:00.000 : en:The Fraternity
00:07:10.305 : en:Stressed Out
00:13:06.827 : en:Greatest Assassin
00:21:06.639 : en:One of Us
00:26:34.216 : en:I'm the Man
00:32:19.895 : en:In the Factory
00:37:38.755 : en:Feeling Good
00:42:13.070 : en:One By One
00:45:30.517 : en:Who Are You?
00:52:01.241 : en:Loom of Fate
00:56:32.219 : en:First Target
01:01:07.161 : en:Second Target
01:04:08.592 : en:A Message
01:09:52.602 : en:Meeting the Maker
01:13:40.412 : en:Off Track
01:20:33.900 : en:Perfet Weapon
01:27:19.063 : en:Kill Him
01:33:32.936 : en:Follow the Code
01:39:34.839 : en:Taking Control
01:42:30.431 : en:End Titles
pb.wtf



Скачать Особо опасен через торрент https://d.radikal.ru/d02/1809/5e/973726fe4afd.png Скачать, смотреть онлайн Особо опасен бесплантно в хорошем качестве Описание: Уэсли Гибсон - зануда и нытик, целыми днями торчащий в офисе. Босс его унижает, подружка ему изменяет. Его жизнь катится в ... 9.9 10 10
Торрент: Зарегистрирован [2018-09-11 03:00] · скачан: 176 раз
Статус: √ проверено
Размер: 12.96 GB
Как cкачать? Как скачать Особо опасен через торрент | UTorrent

% Раздел Тема Автор DL S | L
Фильмы (Blu-ray, BD-Remux, HDDVD) [ 25.09 GB ] Особо опасен / Wanted [2008 BDRemux 1080p] + [AVO] + [VO] killermax2013 Скачать
1 | 0
Фильмы [HD 720p, 1080p] (Хороший звук DUB, MVO) [ 4.81 GB ] Особо опасен / Wanted [2008 BDRip 720p by msltel] DUB 2 x AVO msltel Скачать
1 | 0
Фильмы [HD 720p, 1080p] (Хороший звук DUB, MVO) [ 13.59 GB ] Особо опасен / Wanted [2008 BDRip 1080p by msltel] DUB 2 x AVO msltel Скачать
1 | 0
Фильмы с авторской озвучкой [ 1.46 GB ] Особо опасен / Wanted [2008 HDRip] [AVO] killermax2013 Скачать
1 | 0

28-11-2019 20:33  

Отключить всю рекламу на сайте

    Дорогой пользователь! Огромная просьба, поблагодарите релизера, оцените раздачу и оставьте свои комментарий, если Вы скачали Особо опасен через торрент бесплатно!
    Комментировать посты могут только пользователи прошедшие не сложную регистрацию
    Показать сообщения:    

    Особо опасен через торрент
    Скачать бесплатно Особо опасен
    Особо опасен скачать торрент
    Особо опасен смотреть онлайн
    Cкачать фильм Особо опасен бесплатно
    Особо опасен скачать торрент в хорошем качестве
    Особо опасен смотреть онлайн бесплатно в хорошем качестве


    Вы не можете начинать темы
    Вы не можете отвечать на сообщения
    Вы не можете редактировать свои сообщения
    Вы не можете удалять свои сообщения
    Вы не можете голосовать в опросах
    Вы не можете прикреплять файлы к сообщениям
    Вы можете скачивать файлы