Ссылка на приватное зеркало всего за 1$. Внимание количество ограничено!!!

OK

1+1

iTunes

мы

OK

1

WEB-DLRip

Джокер

Пифагор

Ведьмак / The Witcher сериал

iTunes

ПШазам

ОК

Оно 2

iTunes

30
pack

Вам бонус

ВАЖНО

!!Акция!!

Alien_RageХит недели

RePack

Resident Evil 21

ИГРА 18+

pack

RePack

jed

RePack

fifa19

RePack

Assassins Creed: Odyssey

RePack

NEED FOR SPEED™ PAYBACK

4 сезон

9 сезон

Бесстыжие 9 сезон

Все сериалы

все сериалы на PB.wtf

RePack

FAR CRY 5
  

Эпоха Лета / Age of Summer (Билл Кили) [2018 г., Комедия, WEBRip, Любительский (двухголосый закадровый)HiWay Grope] pb.wtf

Эпоха Лета через торрент pb.wtf

Размер: 1.3 GB | Добавлен: 1 год 4 мес. назад | Торрент скачан:70 раз
Скачать  

12-09-2018 09:34 Эпоха Лета Скачать торрент  

Эпоха Лета / Age of Summer
Год выпуска: 2018
Страна: США, Windowseat Entertainment
Жанр: Комедия
Продолжительность: 01:29:22
Перевод: Любительский (двухголосый закадровый)HiWay Grope
Субтитры: Отсутствуют

Режиссер: Билл Кили

rating

В ролях: Петер Стормаре, Джейк Шлойтер, Брайан Ван Холт, Диармед Мёрта, Перси Хайнс Уайт, Кейн Ритчотт, Мадлен Уэйд, Браяна Салаз, Сандра Инохоса, Сэм Пьюфуа и другие

Описание: Решительный подросток изо всех сил пытается добиться одобрения своих сверстников, учась на спасателя Эрмоса-Бич. Ему предстоит столкнуться с испытаниями и сложными отношениями в прекрасное лето 1986.

Качество: WEBRip
Формат: AVI
Видео кодек: XviD
Аудио кодек: AC3
Видео: XviD, 720x304, 23.976 fps, ~1682 kbps, 0.32 bit/pixel
Аудио#1: AC3, 48 kHz, 6 ch, 384 Kbps
скриншот   скриншот   скриншот   скриншот  

General
Complete name : D:Age.of.Summer.2018.WEBRip.HiWayGropeAge.of.Summer.2018.WEBRip.HiWayGrope.avi
Format : AVI
Format/Info : Audio Video Interleave
File size : 1.30 GiB
Duration : 1 h 29 min
Overall bit rate : 2 076 kb/s
Writing application : VirtualDubMod 1.5.10.3 (build 2550/release)
Writing library : VirtualDubMod build 2550/release

Video
ID : 0
Format : MPEG-4 Visual
Format profile : Simple@L5
Format settings : BVOP1
Format settings, BVOP : 1
Format settings, QPel : No
Format settings, GMC : No warppoints
Format settings, Matrix : Default (MPEG)
Codec ID : XVID
Codec ID/Hint : XviD
Duration : 1 h 29 min
Bit rate : 1 683 kb/s
Width : 720 pixels
Height : 304 pixels
Display aspect ratio : 2.40:1
Frame rate : 23.976 (24000/1001) FPS
Color space : YUV
Chroma subsampling : 4:2:0
Bit depth : 8 bits
Scan type : Progressive
Compression mode : Lossy
Bits/(Pixel*Frame) : 0.321
Stream size : 1.05 GiB (81%)
Writing library : XviD 67

Audio
ID : 1
Format : AC-3
Format/Info : Audio Coding 3
Codec ID : 2000
Duration : 1 h 29 min
Bit rate mode : Constant
Bit rate : 384 kb/s
Channel(s) : 6 channels
Channel positions : Front: L C R, Side: L R, LFE
Sampling rate : 48.0 kHz
Frame rate : 31.250 FPS (1536 SPF)
Bit depth : 16 bits
Compression mode : Lossy
Stream size : 245 MiB (18%)
Alignment : Split accross interleaves
Interleave, duration : 42 ms (1.00 video frame)
Interleave, preload duration : 500 ms
Service kind : Complete Main

pb.wtf



Скачать Эпоха Лета через торрент http://pic1.kartinco.top/images/11/z1814.jpg Скачать фильм Эпоха Лета через торрент бесплантно в хорошем качестве Описание: Решительный подросток изо всех сил пытается добиться одобрения своих сверстников, учась на спасателя Эрмоса-Бич. Ему предстоит ... 10 10 2
Торрент: Зарегистрирован [2018-09-12 09:34] · скачан: 70 раз
Статус: T временная
Размер: 1.3 GB
Как cкачать? Как скачать Эпоха Лета через торрент | qTorrent



Последний раз редактировалось: oleg8 (2018-09-12 10:09), всего редактировалось 1 раз

28-11-2019 20:33  

Отключить всю рекламу на сайте

12-09-2018 09:57 Эпоха Лета Скачать торрент  

oleg8, Укажи реклама есть?pb.wtf



    Дорогой пользователь! Огромная просьба, поблагодарите релизера, оцените раздачу и оставьте свои комментарий, если Вы скачали Эпоха Лета через торрент бесплатно! Внесите свою лепту в развитие PiratBit!
    Комментировать посты могут только пользователи прошедшие не сложную регистрацию
    Показать сообщения:    

    Эпоха Лета через торрент
    Скачать бесплатно Эпоха Лета
    Эпоха Лета скачать торрент
    Эпоха Лета смотреть онлайн
    Cкачать фильм Эпоха Лета бесплатно
    Эпоха Лета скачать торрент в хорошем качестве
    Эпоха Лета смотреть онлайн бесплатно в хорошем качестве


    Вы не можете начинать темы
    Вы не можете отвечать на сообщения
    Вы не можете редактировать свои сообщения
    Вы не можете удалять свои сообщения
    Вы не можете голосовать в опросах
    Вы не можете прикреплять файлы к сообщениям
    Вы можете скачивать файлы