Ссылка на приватное зеркало нашего сайта всего за 1$. Внимание количество ограничено!!!

2 сезон

iTunes

1 сезон

1

2 сезон

2 сезон

iTunes

1 сезон

RePack

30

Ultimate

ВАЖНО

ИГРА 18+

pack

RePack

MK11
pack

Забери бонус

RePack

jed

!!Акция!!

Alien_Rage

RePack

fifa19

RePack

Assassins Creed: Odyssey

RePack

NEED FOR SPEED™ PAYBACK

4 сезон

9 сезон

Бесстыжие 9 сезон

Все сериалы

все сериалы на PB.wtf

RePack

FAR CRY 5
  

Двойка / The Deuce / Сезон: 2 / Серии: 1-9 из 9 (Джеймс Франко, Мишель МакЛарен, Ута Бризвитц) [2018, Драма, WEB-DL 1080p] MVO [Jaskier] pb.wtf

Двойка через торрент pb.wtf

Размер: 44.68 GB | Добавлен: 2 года назад | Торрент скачан:17 раз
Скачать  

12-09-2018 09:41 Двойка Скачать торрент  

✘ Двойка / The Deuce ✘
✦ Год выпуска: 2018
✦ Страна: США / Blown Deadline Productions
✦ Жанр: Драма
✦ Продолжительность: ~ 01:24:00 серия
✦ Перевод: Профессиональный многоголосый | Jaskier
✦ Субтитры: английские

✦ Режиссер: Джеймс Франко, Мишель МакЛарен, Ута Бризвитц

rating


В ролях:

Джеймс Франко, Мэгги Джилленхол, Гари Карр, Маргарита Левиева, Лоуренс Гиллиард мл., Доминик Фишбэк, Эмили Мид, Гбенга Акиннагбе, Кристофер Бауэр

Описание:

Проект исследует беспорядочный мир порно-индустрии 1970-80х годов, процветавший в самом сердце Манхэттена, пока появление СПИДа, распространение наркотиков и обновление рынка недвижимости не положили конец этому безумию.

✦ Качество: WEB-DL 1080p
✦ Формат: MKV

✦ Видео: ~ 13000 kbps | 1920x1080 (16:9) , 23.976 fps
✦ Аудио#1 RU: AC3 | 48.0 KHz | 6 ch | 384 kbps
✦ Аудио#2 EN: AC3 | 48.0 KHz | 6 ch | 384 kbps
скриншот  скриншот  скриншот  

Общее
Уникальный идентификатор : 183025519493314186758866932240180596683 (0x89B16ECFC6D3BC84A51A6F10E0A44FCB)
Полное имя : E:\The Deuce. Season 2 (WEB-DL l 1080p l Jaskier)\The.Deuce.S02E01.1080p.WEB-DL.DD5.1.H.264-Jaskier.mkv
Формат : Matroska
Версия формата : Version 2
Размер файла : 6,08 Гбайт
Продолжительность : 1 ч. 3 м.
Общий поток : 13,6 Мбит/сек
Дата кодирования : UTC 2018-09-12 08:57:19
Программа кодирования : mkvmerge v7.8.0 ('River Man') 32bit built on Apr 3 2015 12:11:22
Библиотека кодирования : libebml v1.3.1 + libmatroska v1.4.2

Видео
Идентификатор : 1
Формат : AVC
Формат/Информация : Advanced Video Codec
Профиль формата : High@L4
Настройки формата : CABAC / 4 Ref Frames
Параметр CABAC формата : Да
Параметр RefFrames формата : 4 кадра
Идентификатор кодека : V_MPEG4/ISO/AVC
Продолжительность : 1 ч. 3 м.
Битрейт : 12,8 Мбит/сек
Ширина : 1920 пикселей
Высота : 1080 пикселей
Соотношение сторон : 16:9
Режим частоты кадров : Постоянный
Частота кадров : 23,976 (24000/1001) кадра/сек
Цветовое пространство : YUV
Субдискретизация насыщенности : 4:2:0
Битовая глубина : 8 бит
Тип развёртки : Прогрессивная
Бит/(Пиксели*Кадры) : 0.253
Размер потока : 5,61 Гбайт (92%)
Язык : English
Default : Да
Forced : Нет
Цветовой диапазон : Limited
Основные цвета : BT.709
Характеристики трансфера : BT.709
Коэффициенты матрицы : BT.709

Аудио #1
Идентификатор : 2
Формат : AC-3
Формат/Информация : Audio Coding 3
Идентификатор кодека : A_AC3
Продолжительность : 1 ч. 3 м.
Вид битрейта : Постоянный
Битрейт : 384 Кбит/сек
Каналы : 6 каналов
Расположение каналов : Front: L C R, Side: L R, LFE
Частота : 48,0 КГц
Частота кадров : 31,250 кадров/сек (1536 SPF)
Битовая глубина : 16 бит
Метод сжатия : С потерями
Размер потока : 176 Мбайт (3%)
Заголовок : Jaskier
Язык : Russian
ServiceKind/String : Complete Main
Default : Да
Forced : Нет

Аудио #2
Идентификатор : 3
Формат : AC-3
Формат/Информация : Audio Coding 3
Идентификатор кодека : A_AC3
Продолжительность : 1 ч. 3 м.
Вид битрейта : Постоянный
Битрейт : 384 Кбит/сек
Каналы : 6 каналов
Расположение каналов : Front: L C R, Side: L R, LFE
Частота : 48,0 КГц
Частота кадров : 31,250 кадров/сек (1536 SPF)
Битовая глубина : 16 бит
Метод сжатия : С потерями
Размер потока : 176 Мбайт (3%)
Язык : English
ServiceKind/String : Complete Main
Default : Нет
Forced : Нет

Текст
Идентификатор : 4
Формат : UTF-8
Идентификатор кодека : S_TEXT/UTF8
Идентификатор кодека/Информация : UTF-8 Plain Text
Язык : English
Default : Нет
Forced : Нет

Когда раздача ведётся путём добавления новых серий, при каждом добавлении создётся новый торрент. Чтобы начать докачку новой серии, пользователям необходимо сделать следующее:
(1) остановить скачивание,
(2) удалить старый торрент у себя из клиента (старые серии удалять не надо),
(3) скачать новый торрент и запустить его у себя в клиенте вместо старого, при этом указать клиенту путь в старую папку, куда и должно происходить скачивание новых серий.
Ваш клиент при этом должен произвести хеширование (проверку) старой папки (если не производит сам - помогите ему сделать это), и будет докачивать только те серии, которых у вас ещё нет. Старые серии при этом не удаляются, а продолжают раздаваться!
Eсли вы уже удалили старые серии, то предотвратить повторную закачку старых серий можно, отжав галочку в соответсвующих местах при запуске нового торрента. По возможности, желательно не удалять старые серии как можно дольше, чтобы релизёр не столько продолжал раздавать старые серии, а смог сконцентрироваться на новых.
Закрыть
pb.wtf



Скачать Двойка через торрент https://d.radikal.ru/d26/1809/49/0c59434e7614.png Скачать фильм Двойка через торрент бесплантно в хорошем качестве Описание: Проект исследует беспорядочный мир порно-индустрии 1970-80х годов, процветавший в самом сердце Манхэттена, пока появление СПИДа, ... 10 10 5
Info! Золотая раздача, скачанное не засчитывается.
Торрент: Зарегистрирован [2018-11-09 04:24] · скачан: 17 раз
Статус: √ проверено
Размер: 44.68 GB
Как cкачать? Как скачать Двойка через торрент | qTorrent

% Раздел Тема Автор DL S | L
Зарубежные сериалы [ 45.89 GB ] Двойка / The Deuce / Сезон 2 / Серия 1-9 из 9 [2018 WEBRip 1080p] [MVO] killermax2013 Скачать
1 | 0
Зарубежные сериалы [ 45.69 GB ] Двойка / The Deuce / Сезон: 2 / Серии: 1-9 из 9 [2018 WEB-DL 1080p] MVO [TVShows] bober100 Скачать
1 | 0
Зарубежные сериалы [ 45.58 GB ] Двойка / The Deuce / Сезон: 2 / Серии: 1-9 из 9 [2018 WEB-DL 1080p] MVO [Амедиа] bober100 Скачать
1 | 0
Зарубежные сериалы [ 12.99 GB ] Двойка / The Deuce / Сезон: 2 / Серии: 1-9 из 9 [2018 WEB-DL 720p] MVO [Амедиа] bober100 Скачать
1 | 0
Зарубежные сериалы [ 12.09 GB ] Двойка / The Deuce / Сезон: 2 / Серии: 1-9 из 9 [2018 WEB-DL 720p] MVO [Jaskier] bober100 Скачать
1 | 0
Зарубежные сериалы [ 6.69 GB ] Двойка / The Deuce / Сезон: 2 / Серии: 1-9 из 9 [2018 WEB-DLRip] MVO [Jaskier] bober100 Скачать
1 | 0
Зарубежные сериалы [ 6.45 GB ] Двойка / The Deuce / Сезон: 2 / Серии: 1-8 из 9 [2018 WEBRip] MVO [Амедиа] bober100 Скачать
1 | 0

28-11-2019 20:33  

Отключить всю рекламу на сайте

    Дорогой пользователь! Огромная просьба, поблагодарите релизера, оцените раздачу и оставьте свои комментарий, если Вы скачали Двойка через торрент бесплатно! Внесите свою лепту в развитие PiratBit!
    Комментировать посты могут только пользователи прошедшие не сложную регистрацию
    Показать сообщения:    

    Двойка через торрент
    Скачать бесплатно Двойка
    Двойка скачать торрент
    Двойка смотреть онлайн
    Cкачать фильм Двойка бесплатно
    Двойка скачать торрент в хорошем качестве
    Двойка смотреть онлайн бесплатно в хорошем качестве


    Вы не можете начинать темы
    Вы не можете отвечать на сообщения
    Вы не можете редактировать свои сообщения
    Вы не можете удалять свои сообщения
    Вы не можете голосовать в опросах
    Вы не можете прикреплять файлы к сообщениям
    Вы можете скачивать файлы