Ссылка на приватное зеркало всего за 1$. Внимание количество ограничено!!!

iTunes

1+1

iTunes

мы

WEB-DL

1

iTunes

Чернобыль

iTunes

Ральф против интернета

Лицензия

ПШазам

Лицензия

Оно 2

Лицензия

30
pack

Вам бонус

ВАЖНО

!!Акция!!

Alien_RageХит недели

RePack

Resident Evil 21

ИГРА 18+

pack

RePack

jed

!!Акция!!

Alien_Rage

RePack

fifa19

RePack

Assassins Creed: Odyssey

RePack

NEED FOR SPEED™ PAYBACK

3 сезон

9 сезон

Бесстыжие 9 сезон

Все сериалы

все сериалы на PB.wtf

RePack

FAR CRY 5
Ребята, катастрофически не хватает 1900р. для оплаты серверов за Октябрь (всвязи с блокировками трафик упал в 3 раза), 1-2р., выручайте.
  

Командировка (Юрий Егоров) [1961, СССР, драма, DVDRip от AVP Studio] pb.wtf

Командировка через торрент pb.wtf

Размер: 744 MB | Добавлен: 1 год 3 мес. назад | Торрент скачан:9 раз
Скачать  

12-09-2018 09:43 Командировка Скачать торрент  

Командировка
Страна: СССР
Производство: Киностудия им. М. Горького

Жанр: драма
Год выпуска: 1961
Продолжительность: 01:25:31

Перевод: Не требуется
Cубтитры: нет
Оригинальная аудиодорожка: русский

Режиссер: Юрий Егоров

В ролях:
Олег Ефремов, Светлана Карпинская, Валерий Малышев, Геннадий Фролов, Ольга Лысенко, Алексей Миронов, Иван Лапиков, Мария Андрианова, Алексей Смирнов, Давид (Додо) Абашидзе...
Об актёрах подробней

Описание:
Конструктор Щербаков (Олег Ефремов) получает перед отпуском телеграмму из колхоза, в которой сообщается о том, что картофелеуборочный агрегат, сконструированный им, не работает. Вместо отпуска Щербаков едет в командировку "довести до ума" свое творение - универсальный комбайн, который никак не хотел трудиться на колхозной земле. Щербаков предполагал, что едет на недельку, а вышло по-другому. Здесь он знакомится с Клавой (Светлана Карпинская), работающей на пасеке. И далеко не по служебным мотивам остается инженер в колхозе...

Источник: DVD9 R5
Качество видео: DVDRip
Формат видео: AVI

Видео: 688х320 (2,2:1), 25 fps, XviD ~ 1015 kbps avg, 0.184 bit/pixel
Аудио: 48 kHz, Dolby Digital AC3 2.0, 192 kbps

Раздача от:
Общее
Полное имя : Komandirovka.1961.DVDRip_[New-team]_by_AVP_Studio.avi
Формат : AVI
Формат/Информация : Audio Video Interleave
Размер файла : 744 Мбайт
Продолжительность : 1 ч. 25 м.
Общий поток : 1217 Кбит/сек
Программа кодирования : VirtualDubMod 1.5.10.3 | www.virtualdub-fr.org || (build 2550/release)
Библиотека кодирования : VirtualDubMod build 2550/release

Видео
Идентификатор : 0
Формат : MPEG-4 Visual
Профиль формата : Advanced Simple@L5
Настройки формата : BVOP1 / Custom Matrix
Параметр BVOP формата : 1
Параметр QPel формата : Нет
Параметр GMC формата : Без точки перехода
Параметр матрицы формата : Выборочная
Идентификатор кодека : XVID
Идентификатор кодека/Подсказка : XviD
Продолжительность : 1 ч. 25 м.
Битрейт : 1015 Кбит/сек
Ширина : 688 пикселей
Высота : 320 пикселей
Соотношение сторон : 2,2:1
Частота кадров : 25,000 кадров/сек
Цветовое пространство : YUV
Субдискретизация насыщенности : 4:2:0
Битовая глубина : 8 бит
Тип развёртки : Прогрессивная
Метод сжатия : С потерями
Бит/(Пиксели*Кадры) : 0.184
Размер потока : 621 Мбайт (83%)
Библиотека кодирования : XviD 73

Аудио
Идентификатор : 1
Формат : AC-3
Формат/Информация : Audio Coding 3
Коммерческое название : Dolby Digital
Идентификатор кодека : 2000
Продолжительность : 1 ч. 25 м.
Вид битрейта : Постоянный
Битрейт : 192 Кбит/сек
Каналы : 2 канала
Channel layout : L R
Частота : 48,0 КГц
Частота кадров : 31,250 кадров/сек (1536 SPF)
Битовая глубина : 16 бит
Метод сжатия : С потерями
Размер потока : 117 Мбайт (16%)
Выравнивание : Разделение по промежуткам
Продолжительность промежутка : 40 мс. (1,00 видеокадр)
Время предзагрузки промежутка : 500 мс
pb.wtf



Скачать Командировка через торрент http://picplus.ru/img/1809/12/b68a05aa.png Скачать фильм Командировка через торрент бесплантно в хорошем качестве Описание:Конструктор Щербаков (Олег Ефремов) получает перед отпуском телеграмму из колхоза, в которой сообщается о том, что ... 5 10 1
Info! Золотая раздача, скачанное не засчитывается.
Торрент: Зарегистрирован [2018-09-12 09:43] · скачан: 9 раз
Статус: √ проверено
Размер: 744 MB
Как cкачать? Как скачать Командировка через торрент | qTorrent

% Раздел Тема Автор DL S | L
Документальные фильмы и телепередачи [ 586 MB ] Код доступа. Разведчики-нелегалы: командировка длиною в жизнь [2019 Документальный SATRip] Armstrong Скачать
1 | 0
Кино СССР [ 744 MB ] Командировка [1961 СССР DVDRip-AVC от AVP Studio] AVP Studio Скачать
1 | 0
Наши сериалы [ 1.47 GB ] Поездка за счастьем / Экспресс-командировка / Серии 1-4 из 4 [2016 Мело WEBRip] bober100 Скачать
1 | 0
Фантастика [ 758 MB ] Стратегия: Командировка [2016 аудиокнига MP3 128kbps Борис Зуев] Magnat Скачать
1 | 0
Приключения-путешествия [ 1.02 GB ] Василий Ардаматский - Первая командировка [Вячеслав Герасимов 2011 128 kbps MP3] Бумер Скачать
1 | 0
Детективы, Боевики, Триллеры [ 2.06 GB ] Данил Корецкий - Расписной [Савицкий Николай 2006 256 kbps MP3] Бумер Скачать
1 | 0
Мамочки [ 273 MB ] Командировка часть 3 / Business Trip Part 3 [2013 All Sex Oral Brunette MILF&Mature Pantyhose SATRip] sheker187 Скачать
1 | 0

28-11-2019 20:33  

Отключить всю рекламу на сайте

    Дорогой пользователь! Огромная просьба, поблагодарите релизера, оцените раздачу и оставьте свои комментарий, если Вы скачали Командировка через торрент бесплатно! Внесите свою лепту в развитие PiratBit!
    Комментировать посты могут только пользователи прошедшие не сложную регистрацию
    Показать сообщения:    

    Командировка через торрент
    Скачать бесплатно Командировка
    Командировка скачать торрент
    Командировка смотреть онлайн
    Cкачать фильм Командировка бесплатно
    Командировка скачать торрент в хорошем качестве
    Командировка смотреть онлайн бесплатно в хорошем качестве


    Вы не можете начинать темы
    Вы не можете отвечать на сообщения
    Вы не можете редактировать свои сообщения
    Вы не можете удалять свои сообщения
    Вы не можете голосовать в опросах
    Вы не можете прикреплять файлы к сообщениям
    Вы можете скачивать файлы