новый адрес пиратбит piratbit
Мега распродажа FORZA HORIZON 4 ULTIMATE+ВСЕ DLC+ОНЛАЙН всего за 499р. 349 руб. (супер цена). Внимание количество ограничено!!!

iTunes

1+1

iTunes

мы

iTunes

1

iTunes

Чернобыль

iTunes

Ральф против интернета

Лицензия

ПШазам

Лицензия

Игра престолов

Лицензия

30
pack

ВАЖНО

!!Акция!!

Alien_RageХит недели

RePack

Resident Evil 21

ИГРА 18+

pack

RePack

Metro:Exodus

!!Акция!!

Alien_Rage

RePack

fifa19

RePack

Assassins Creed: Odyssey

RePack

NEED FOR SPEED™ PAYBACK

3 сезон

9 сезон

Бесстыжие 9 сезон

Все сериалы

все сериалы на PB.wtf

RePack

FAR CRY 5
Ребята, катастрофически не хватает 1900р. для оплаты серверов за Октябрь (всвязи с блокировками трафик упал в 3 раза), 1-2р., выручайте.
  

Командировка (Юрий Егоров) [1961, СССР, драма, DVDRip-AVC от AVP Studio] pb.wtf

Командировка через торрент pb.wtf

Размер: 744 MB | Добавлен: 1 год 2 мес. назад | Торрент скачан:20 раз
Скачать  

12-09-2018 09:45 Командировка Скачать торрент  

Командировка
Страна: СССР
Производство: Киностудия им. М. Горького

Жанр: драма
Год выпуска: 1961
Продолжительность: 01:25:31

Перевод: Не требуется
Cубтитры: нет
Оригинальная аудиодорожка: русский

Режиссер: Юрий Егоров

В ролях:
Олег Ефремов, Светлана Карпинская, Валерий Малышев, Геннадий Фролов, Ольга Лысенко, Алексей Миронов, Иван Лапиков, Мария Андрианова, Алексей Смирнов, Давид (Додо) Абашидзе...
Об актёрах подробней

Описание:
Конструктор Щербаков (Олег Ефремов) получает перед отпуском телеграмму из колхоза, в которой сообщается о том, что картофелеуборочный агрегат, сконструированный им, не работает. Вместо отпуска Щербаков едет в командировку "довести до ума" свое творение - универсальный комбайн, который никак не хотел трудиться на колхозной земле. Щербаков предполагал, что едет на недельку, а вышло по-другому. Здесь он знакомится с Клавой (Светлана Карпинская), работающей на пасеке. И далеко не по служебным мотивам остается инженер в колхозе...

Источник: DVD5 R5
Качество видео: DVDRip-AVC
Формат видео: MKV

Видео: 696->763х348 (2,2:1), 25 fps, H264 ~ 1023 kbps avg, 0.169 bit/pixel
Аудио: 48 kHz, Dolby Digital AC3 2.0, 192 kbps

Раздача от:
Общее
Полное имя : Komandirovka.1961.DVDRip-AVC_[New-team]_by_AVP_Studio.mkv
Формат : Matroska
Версия формата : Version 2
Размер файла : 744 Мбайт
Продолжительность : 1 ч. 25 м.
Общий поток : 1217 Кбит/сек
Дата кодирования : UTC 2018-09-10 10:24:42
Программа кодирования : mkvmerge v6.1.0 ('Old Devil') built on Mar 4 2013 09:10:42
Библиотека кодирования : libebml v1.3.0 + libmatroska v1.4.0

Видео
Идентификатор : 1
Формат : AVC
Формат/Информация : Advanced Video Codec
Профиль формата : High@L4.1
Настройки формата : CABAC / 10 Ref Frames
Параметр CABAC формата : Да
Параметр RefFrames формата : 10 кадров
Идентификатор кодека : V_MPEG4/ISO/AVC
Продолжительность : 1 ч. 25 м.
Битрейт : 1023 Кбит/сек
Ширина : 696 пикселей
Высота : 348 пикселей
Соотношение сторон : 2,141
Соотношение сторон в оригинале : 2,139
Режим частоты кадров : Постоянный
Частота кадров : 25,000 кадров/сек
Цветовое пространство : YUV
Субдискретизация насыщенности : 4:2:0
Битовая глубина : 8 бит
Тип развёртки : Прогрессивная
Бит/(Пиксели*Кадры) : 0.169
Размер потока : 612 Мбайт (82%)
Библиотека кодирования : x264 core 157 r2932 303c484
Настройки программы : cabac=1 / ref=10 / deblock=1:-2:-1 / analyse=0x3:0x113 / me=umh / subme=10 / psy=1 / psy_rd=1.00:0.00 / mixed_ref=1 / me_range=32 / chroma_me=1 / trellis=2 / 8x8dct=1 / cqm=0 / deadzone=21,11 / fast_pskip=1 / chroma_qp_offset=-2 / threads=6 / lookahead_threads=1 / sliced_threads=0 / nr=0 / decimate=0 / interlaced=0 / bluray_compat=0 / constrained_intra=0 / bframes=8 / b_pyramid=2 / b_adapt=2 / b_bias=0 / direct=3 / weightb=1 / open_gop=0 / weightp=2 / keyint=250 / keyint_min=25 / scenecut=40 / intra_refresh=0 / rc=2pass / mbtree=0 / bitrate=1023 / ratetol=1.0 / qcomp=0.60 / qpmin=0 / qpmax=69 / qpstep=4 / cplxblur=20.0 / qblur=0.5 / ip_ratio=1.40 / pb_ratio=1.30 / aq=1:1.00
Default : Да
Forced : Нет

Аудио
Идентификатор : 2
Формат : AC-3
Формат/Информация : Audio Coding 3
Коммерческое название : Dolby Digital
Идентификатор кодека : A_AC3
Продолжительность : 1 ч. 25 м.
Вид битрейта : Постоянный
Битрейт : 192 Кбит/сек
Каналы : 2 канала
Channel layout : L R
Частота : 48,0 КГц
Частота кадров : 31,250 кадров/сек (1536 SPF)
Битовая глубина : 16 бит
Метод сжатия : С потерями
Размер потока : 117 Мбайт (16%)
Default : Да
Forced : Нет
pb.wtf



Скачать Командировка через торрент http://picplus.ru/img/1809/12/b68a05aa.png Скачать фильм Командировка через торрент бесплантно в хорошем качестве Описание:Конструктор Щербаков (Олег Ефремов) получает перед отпуском телеграмму из колхоза, в которой сообщается о том, что ... 10 10 1
Info! Золотая раздача, скачанное не засчитывается.
Торрент: Зарегистрирован [2018-09-12 09:45] · скачан: 20 раз
Статус: √ проверено
Размер: 744 MB
Как cкачать? Как скачать Командировка через торрент | qTorrent

% Раздел Тема Автор DL S | L
Документальные фильмы и телепередачи [ 586 MB ] Код доступа. Разведчики-нелегалы: командировка длиною в жизнь [2019 Документальный SATRip] Armstrong Скачать
1 | 0
Кино СССР [ 744 MB ] Командировка [1961 СССР DVDRip от AVP Studio] AVP Studio Скачать
1 | 0
Наши сериалы [ 1.47 GB ] Поездка за счастьем / Экспресс-командировка / Серии 1-4 из 4 [2016 Мело WEBRip] bober100 Скачать
1 | 0
Фантастика [ 758 MB ] Стратегия: Командировка [2016 аудиокнига MP3 128kbps Борис Зуев] Magnat Скачать
1 | 0
Приключения-путешествия [ 1.02 GB ] Василий Ардаматский - Первая командировка [Вячеслав Герасимов 2011 128 kbps MP3] Бумер Скачать
1 | 0
Детективы, Боевики, Триллеры [ 2.06 GB ] Данил Корецкий - Расписной [Савицкий Николай 2006 256 kbps MP3] Бумер Скачать
1 | 0
Мамочки [ 273 MB ] Командировка часть 3 / Business Trip Part 3 [2013 All Sex Oral Brunette MILF&Mature Pantyhose SATRip] sheker187 Скачать
1 | 0


>> Регистрируемся здесь <<






Отзывы и комментарии о схеме читаем и пишем здесь: ---> Отзывы и комментарии о схеме

Новые благодарочки в телеграм довольных пользователей:
скриншот   скриншот   скриншот   скриншот   скриншот
    Дорогой пользователь! Огромная просьба, поблагодарите релизера, оцените раздачу и оставьте свои комментарий, если Вы скачали Командировка через торрент бесплатно! Внесите свою лепту в развитие PiratBit!
    Комментировать посты могут только пользователи прошедшие не сложную регистрацию
    Показать сообщения:    

    Командировка через торрент
    Скачать бесплатно Командировка
    Командировка скачать торрент
    Командировка смотреть онлайн
    Cкачать фильм Командировка бесплатно
    Командировка скачать торрент в хорошем качестве
    Командировка смотреть онлайн бесплатно в хорошем качестве


    Вы не можете начинать темы
    Вы не можете отвечать на сообщения
    Вы не можете редактировать свои сообщения
    Вы не можете удалять свои сообщения
    Вы не можете голосовать в опросах
    Вы не можете прикреплять файлы к сообщениям
    Вы можете скачивать файлы