новый адрес
Ссылка на приватное зеркало всего за 1$. Внимание количество ограничено!!!

iTunes

1+1

iTunes

мы

WEB-DL

1

iTunes

Чернобыль

iTunes

Ральф против интернета

Лицензия

ПШазам

Лицензия

Оно 2

Лицензия

30
pack

Вам бонус

ВАЖНО

!!Акция!!

Alien_RageХит недели

RePack

Resident Evil 21

ИГРА 18+

pack

RePack

jed

!!Акция!!

Alien_Rage

RePack

fifa19

RePack

Assassins Creed: Odyssey

RePack

NEED FOR SPEED™ PAYBACK

3 сезон

9 сезон

Бесстыжие 9 сезон

Все сериалы

все сериалы на PB.wtf

RePack

FAR CRY 5
Ребята, катастрофически не хватает 1900р. для оплаты серверов за Октябрь (всвязи с блокировками трафик упал в 3 раза), 1-2р., выручайте.
  

Падре / The Padre (Джонатан Собол) [2018 г., Драма, WEB-DLRip-AVC] MVO, Sub [Rus] - ExKinoRay pb.wtf

Падре через торрент pb.wtf

Раздают: 1 [ 0 KB/s ]
Размер: 1.53 GB | Добавлен: 1 год 2 мес. назад | Торрент скачан:326 раз
Скачать  

13-09-2018 03:46 Падре Скачать торрент  

Название: Падре
Оригинальное название: The Padre
Год выпуска: 2018
Жанр: Драма
Выпущено: Канада, Darius Films
Режиссер: Джонатан Собол
В ролях: Тим Рот, Ник Нолти, Луис Гусман, Мари Пакуин, Хейли Эрмида, Бенжамин Петерсен

О фильме: Немолодой вор Падре скрывается от полиции на угнанной машине, не заметив, что в салоне спряталась девочка-подросток. Неудобная попутчица уговаривает Падре сделать ее своей напарницей и вместе провернуть по-настоящему крупное ограбление.

rating

Страна: Канада
Студия: Darius Films
Продолжительность: 01:35:04
Перевод: Профессиональный (многоголосый, закадровый) | Официальный звук

Без какой-либо рекламы.

Кодек: х264
Качество: WEB-DLRip-AVC
Видео: MPEG-4 AVC, 1024x424, 23,976 fps, ~ 1733 kbps
Аудио 1: AC3, 2/0 ch, 192 Кбит/сек, CBR, 48,0 КГц
Аудио 2: AC3, 5/1 ch, 384 Кбит/сек, CBR, 48,0 КГц
Субтитры: Русские, английские, французские, украинские
General
Unique ID : 186016685188371979348476049221630674759 (0x8BF182AA9F613E7A981033508BB5C747)
Complete name : D:\Padre.2018.WEB-DLRip.AVC.ExKinoRay.mkv
Format : Matroska
Format version : Version 2
File size : 1.53 GiB
Duration : 1 h 35 min
Overall bit rate : 2 311 kb/s
Movie name : Padre 2018 from ExKinoRay
Encoded date : UTC 2018-09-13 01:27:55
Writing application : mkvmerge v5.6.0 ('Kenya Kane') built on May 27 2012 16:44:04
Writing library : libebml v1.2.3 + libmatroska v1.3.0

Video
ID : 1
Format : AVC
Format/Info : Advanced Video Codec
Format profile : High@L4.1
Format settings, CABAC : Yes
Format settings, ReFrames : 12 frames
Codec ID : V_MPEG4/ISO/AVC
Duration : 1 h 35 min
Bit rate : 1 733 kb/s
Width : 1 024 pixels
Height : 424 pixels
Display aspect ratio : 2.40:1
Frame rate mode : Constant
Frame rate : 23.976 (23976/1000) FPS
Color space : YUV
Chroma subsampling : 4:2:0
Bit depth : 8 bits
Scan type : Progressive
Bits/(Pixel*Frame) : 0.166
Stream size : 1.12 GiB (73%)
Title : Enigma
Writing library : x264 core 152 r2851 ba24899
Encoding settings : cabac=1 / ref=12 / deblock=1:-2:-2 / analyse=0x3:0x113 / me=umh / subme=10 / psy=1 / psy_rd=1.05:0.10 / mixed_ref=1 / me_range=32 / chroma_me=1 / trellis=2 / 8x8dct=1 / cqm=0 / deadzone=21,11 / fast_pskip=0 / chroma_qp_offset=-3 / threads=12 / lookahead_threads=3 / sliced_threads=0 / nr=0 / decimate=0 / interlaced=0 / bluray_compat=0 / constrained_intra=0 / bframes=12 / b_pyramid=2 / b_adapt=2 / b_bias=0 / direct=3 / weightb=1 / open_gop=0 / weightp=2 / keyint=240 / keyint_min=23 / scenecut=40 / intra_refresh=0 / rc_lookahead=40 / rc=2pass / mbtree=1 / bitrate=1733 / ratetol=1.0 / qcomp=0.60 / qpmin=0 / qpmax=51 / qpstep=4 / cplxblur=20.0 / qblur=0.5 / ip_ratio=1.40 / aq=1:1.00
Language : English
Default : Yes
Forced : No
Color range : Limited
Color primaries : BT.709
Transfer characteristics : BT.709
Matrix coefficients : BT.709

Audio #1
ID : 2
Format : AC-3
Format/Info : Audio Coding 3
Mode extension : CM (complete main)
Format settings, Endianness : Big
Codec ID : A_AC3
Duration : 1 h 35 min
Bit rate mode : Constant
Bit rate : 192 kb/s
Channel(s) : 2 channels
Channel positions : Front: L R
Sampling rate : 48.0 kHz
Frame rate : 31.250 FPS (1536 spf)
Compression mode : Lossy
Stream size : 131 MiB (8%)
Title : MVO
Language : Russian
Default : Yes
Forced : No

Audio #2
ID : 3
Format : AC-3
Format/Info : Audio Coding 3
Mode extension : CM (complete main)
Format settings, Endianness : Big
Codec ID : A_AC3
Duration : 1 h 35 min
Bit rate mode : Constant
Bit rate : 384 kb/s
Channel(s) : 6 channels
Channel positions : Front: L C R, Side: L R, LFE
Sampling rate : 48.0 kHz
Frame rate : 31.250 FPS (1536 spf)
Compression mode : Lossy
Stream size : 261 MiB (17%)
Language : English
Default : No
Forced : No

Text #1
ID : 4
Format : UTF-8
Codec ID : S_TEXT/UTF8
Codec ID/Info : UTF-8 Plain Text
Title : Forced
Language : Russian
Default : No
Forced : Yes

Text #2
ID : 5
Format : UTF-8
Codec ID : S_TEXT/UTF8
Codec ID/Info : UTF-8 Plain Text
Title : Full
Language : Russian
Default : No
Forced : No

Text #3
ID : 6
Format : UTF-8
Codec ID : S_TEXT/UTF8
Codec ID/Info : UTF-8 Plain Text
Language : English
Default : No
Forced : No

Text #4
ID : 7
Format : UTF-8
Codec ID : S_TEXT/UTF8
Codec ID/Info : UTF-8 Plain Text
Language : French
Default : No
Forced : No

Text #5
ID : 8
Format : UTF-8
Codec ID : S_TEXT/UTF8
Codec ID/Info : UTF-8 Plain Text
Language : Ukrainian
Default : No
Forced : No
Релиз от:

Автор релиза: pb.wtf



Скачать Падре через торрент http://pic1.kartinco.top/images/11/6hend.jpg Скачать фильм Падре через торрент бесплантно в хорошем качестве О фильме: Немолодой вор Падре скрывается от полиции на угнанной машине, не заметив, что в салоне спряталась девочка-подросток. Неудобная ... 9.9 10 8
Info! Золотая раздача, скачанное не засчитывается.
Торрент: Зарегистрирован [2018-09-13 03:46] · скачан: 326 раз
Статус: T временная
Размер: 1.53 GB
Как cкачать? Как скачать Падре через торрент | qTorrent

% Раздел Тема Автор DL S | L
T Фильмы без перевода [ 1.37 GB ] Падре / The Padre [2018 WEB-DLRip] Sub [Rus] - ExKinoRay Enigma2010 Скачать
3 | 0

28-11-2019 20:33  

Отключить всю рекламу на сайте

13-09-2018 08:28 Падре Скачать торрент  

судя по первой оценке - хренотень pb.wtf



14-09-2018 13:15 Падре Скачать торрент  

Хороший взрослый фильм. Старая гвардия не разочаровывает своей игрой, нормальный сценарий без дыр, красивые съемки. Судить по первой оценке примерно тоже, что судить о пользователе по аватарке. Например, судя по аватару, на трекере есть животные семейства кошачьих, скорее всего ирбис, очень красивый зверь. Но ведь это ерунда так рассуждать, пользователь точно человек, просто свое мнение у него еще не выросло. Если вы считаете что *Три билборда...* несопоставимо лучше *Формы воды* этот фильм вам понравится. Качество рипа и перевод хорошие. Спасибо за раздачу.pb.wtf



16-09-2018 16:02 Падре Скачать торрент  

rimins2 писал(а):

Если вы считаете что *Три билборда...* несопоставимо лучше *Формы воды* этот фильм вам понравится

Веский аргумент, добавлю в будущие закачкиpb.wtf



    Дорогой пользователь! Огромная просьба, поблагодарите релизера, оцените раздачу и оставьте свои комментарий, если Вы скачали Падре через торрент бесплатно! Внесите свою лепту в развитие PiratBit!
    Комментировать посты могут только пользователи прошедшие не сложную регистрацию
    Показать сообщения:    

    Падре через торрент
    Скачать бесплатно Падре
    Падре скачать торрент
    Падре смотреть онлайн
    Cкачать фильм Падре бесплатно
    Падре скачать торрент в хорошем качестве
    Падре смотреть онлайн бесплатно в хорошем качестве


    Вы не можете начинать темы
    Вы не можете отвечать на сообщения
    Вы не можете редактировать свои сообщения
    Вы не можете удалять свои сообщения
    Вы не можете голосовать в опросах
    Вы не можете прикреплять файлы к сообщениям
    Вы можете скачивать файлы