2 сезон

iTunes

MVO

1

2 сезон

iTunes

iTunes

1 сезон

RePack

30

Новинка

ВАЖНО

ИГРА 18+

pack

RePack

MK11
pack

Легкие деньги

RePack

jed

RePack

fifa19

RePack

RDR2

RePack

NEED FOR SPEED™ PAYBACK

4 сезон

9 сезон

Бесстыжие 9 сезон

Все сериалы

все сериалы на PB.wtf

RePack

FAR CRY 5

Anonymous, доброй ночи, мы не успеваем собрать деньги на оплату серверов за декабрь и январь, помогите нам пожалуйста в это трудное время. В качестве благодарности мы отключим Вам всю рекламу на сайте (укажите свой ник в строку Ваше имя)!

×
  
Magnet ссылка

Мир Юрского периода 2 в 3Д / Jurassic World: Fallen Kingdom 3D (Хуан Антонио Байона / Juan Antonio Bayona) [2018, фантастика, боевик, приключения, BDRip, 1080p] OverUnder / Вертикальная стереопара pb.wtf

Мир Юрского периода 2 в 3Д через торрент pb.wtf

Качают: 1 [ 0 KB/s ]
Размер: 15.61 GB | Добавлен: 2 года 3 мес. назад | Торрент скачан:141 раз
Скачать  

13-09-2018 13:17 Мир Юрского периода 2 в 3Д Скачать торрент  

Мир Юрского периода 2 / Jurassic World: Fallen Kingdom

Год выпуска: 2018
Страна: США (Universal Pictures, Amblin Entertainment, Legendary Pictures, Perfect World Pictures)
Жанр: фантастика, боевик, приключения
Продолжительность: 02:08:18

Перевод: Профессиональный дублированный(лицензия)
Русские субтитры: нет
Режиссер на русском: Хуан Антонио Байона / Juan Antonio Bayona

В ролях: Крис Пратт, Брайс Даллас Ховард, Рейф Сполл, Джастис Смит, Даниэлла Пинеда, Джеймс Кромуэлл, Тоби Джонс, Тед Левайн, Джефф Голдблюм, Б.Д. Вонг

Описание: На острове Нублар, где не так давно располагался парк развлечений с динозаврами, правит бал дикая природа, но внезапно пробудившийся вулкан угрожает стереть динозавров с лица земли. Бывшая управляющая парком Клэр Диринг переквалифицировалась в защитницу исчезающих видов и пытается сделать всё, чтобы спасти доисторических животных. На неё выходит Илай Миллс — доверенное лицо миллиардера Бенждамина Локвуда, который много лет назад был соратником профессора Хаммонда. Миллс предлагает Клэр, знакомой с системой безопасности парка, поехать на остров и помочь ему поймать нескольких особей, чтобы вывести их на другой безопасный остров. Клэр даже удается уговорить своего бывшего парня, дрессировщика Оуэена, принять участие в спасательной миссии, но по прибытии в парк, выясняется, что у Миллса совсем другие цели.

Сэмпл: http://sendfile.su/1444812

Качество: BDrip, 1080p
Контейнер: MKV
Формат 3D: OverUnder / Вертикальная стереопара
Порядок ракурсов: левый ракурс первый
Видео кодек: x264
Аудио кодек: AC3
Видео: AVC / High@L5.0 / 23,976 fps / 1920х2160 / 15,7 Мбит/сек
Аудио: Русский / DTS / 48 KHz / 5.1 ch / 768 Кбит/сек(лицензия)
Аудио 2: Английский / AC3 / 48 KHz / 5.1 ch / 640 Кбит/сек

ВНИМАНИЕ ! На встроенных ТВ-плеерах работать не будет!!!

ТВ Samsung в названии которого есть надпись Ultra HD , и LG Ultra HD 800 серии, LG C6P, Xiaomi Mi TV 2 воспроизводят полные стереопары встроенными плеерами
Железные плееры на которых воспроизводятся полные стереопары:Popcorn C-200 , Dune HD Smart D1 , Dune HD DUO , Dune HD Smart H1 , Dune HD Smart B1 , Dune HD Max , Dune HD TV-303D, Dune HD TV-102, Dune HD Base 3D, Philips HMP7001, Aura HD, MECOOL BB2
Чтобы изображение было на весь экран в плеере выставляем, если рип 1920х1600 - то выставляем 2.35:1 , если 1920х2160 - то выставляем 16:9

28.09.2018. Релиз обновлён - русская звуковая дорога iTunes заменена на лицензию..
Желающие, скачайте заново торрент-файл.
Общее
Уникальный идентификатор : 224343140573223564380704391568085792863 (0xA8C6EACF3E55106F87AA5AD4A678B85F)
Полное имя : G:\видео\Jurassic World Fallen Kingdom.Rip by SeRoGa00 (1).mkv
Формат : Matroska
Версия формата : Version 2
Размер файла : 15,6 Гбайт
Продолжительность : 2 ч. 8 м.
Общий поток : 17,4 Мбит/сек
Дата кодирования : UTC 2018-09-28 05:43:11
Программа кодирования : mkvmerge v3.4.0 ('Rapunzel') сборка от May 15 2010 09:38:20
Библиотека кодирования : libebml v0.8.0 + libmatroska v0.9.0

Видео
Идентификатор : 1
Формат : AVC
Формат/Информация : Advanced Video Codec
Профиль формата : High@L5.0
Параметр CABAC формата : Да
Параметр ReFrames формата : 4 кадра
Идентификатор кодека : V_MPEG4/ISO/AVC
Продолжительность : 2 ч. 8 м.
Битрейт : 15,7 Мбит/сек
Ширина : 1920 пикселей
Высота : 2160 пикселей
Соотношение сторон : 0,889
Частота кадров : 23,976 кадра/сек
Цветовое пространство : YUV
Субдискретизация насыщенности : 4:2:0
Битовая глубина : 8 бит
Тип развёртки : Прогрессивная
Бит/(Пиксели*Кадры) : 0.158
Размер потока : 14,0 Гбайт (90%)
Заголовок : Rip by SeRoGa00
Библиотека кодирования : x264 core 155 r2901 7d0ff22
Настройки программы : cabac=1 / ref=4 / deblock=1:-3:-3 / analyse=0x3:0x113 / me=umh / subme=10 / psy=1 / psy_rd=1.00:0.15 / mixed_ref=1 / me_range=24 / chroma_me=1 / trellis=2 / 8x8dct=1 / cqm=0 / deadzone=21,11 / fast_pskip=1 / chroma_qp_offset=-3 / threads=18 / lookahead_threads=6 / sliced_threads=0 / nr=0 / decimate=0 / interlaced=0 / bluray_compat=0 / constrained_intra=0 / bframes=10 / b_pyramid=2 / b_adapt=2 / b_bias=0 / direct=3 / weightb=1 / open_gop=0 / weightp=2 / keyint=250 / keyint_min=23 / scenecut=40 / intra_refresh=0 / rc_lookahead=60 / rc=crf / mbtree=1 / crf=16.5 / qcomp=0.60 / qpmin=10 / qpmax=69 / qpstep=4 / vbv_maxrate=40000 / vbv_bufsize=40000 / crf_max=0.0 / nal_hrd=none / filler=0 / ip_ratio=1.40 / aq=1:1.00
Язык : English
Default : Нет
Forced : Нет

Аудио #1
Идентификатор : 2
Формат : DTS
Формат/Информация : Digital Theater Systems
Идентификатор кодека : A_DTS
Продолжительность : 2 ч. 8 м.
Вид битрейта : Постоянный
Битрейт : 768 Кбит/сек
Каналы : 6 каналов
Расположение каналов : Front: L C R, Side: L R, LFE
Частота : 48,0 КГц
Битовая глубина : 24 бит
Метод сжатия : С потерями
Размер потока : 692 Мбайт (4%)
Язык : Russian
Default : Да
Forced : Нет

Аудио #2
Идентификатор : 3
Формат : AC-3
Формат/Информация : Audio Coding 3
Расширение режима : CM (complete main)
Параметр Endianness формата : Big
Идентификатор кодека : A_AC3
Продолжительность : 2 ч. 8 м.
Вид битрейта : Постоянный
Битрейт : 640 Кбит/сек
Каналы : 6 каналов
Расположение каналов : Front: L C R, Side: L R, LFE
Частота : 48,0 КГц
Битовая глубина : 16 бит
Метод сжатия : С потерями
Размер потока : 587 Мбайт (4%)
Язык : English
Default : Нет
Forced : Нет

Меню
00:00:00.000 : en:00:00:00.000
00:07:13.223 : en:00:07:13.223
00:12:01.553 : en:00:12:01.553
00:17:17.744 : en:00:17:17.744
00:21:17.192 : en:00:21:17.192
00:28:49.810 : en:00:28:49.810
00:35:04.684 : en:00:35:04.684
00:40:51.574 : en:00:40:51.574
00:46:32.498 : en:00:46:32.498
00:52:04.996 : en:00:52:04.996
01:00:59.197 : en:01:00:59.197
01:06:50.255 : en:01:06:50.255
01:11:07.637 : en:01:11:07.637
01:17:21.094 : en:01:17:21.094
01:26:55.210 : en:01:26:55.210
01:33:01.492 : en:01:33:01.492
01:42:55.877 : en:01:42:55.877
01:50:01.552 : en:01:50:01.552
01:54:56.221 : en:01:54:56.221
01:58:37.984 : en:01:58:37.984
скриншот  

скриншот  

скриншот  

скриншот  

скриншот  

скриншот  
pb.wtf



Скачать Мир Юрского периода 2 в 3Д через торрент https://a.radikal.ru/a23/1809/7c/bcb68605a346.png Скачать фильм Мир Юрского периода 2 в 3Д через торрент бесплантно в хорошем качестве Описание: На острове Нублар, где не так давно располагался парк развлечений с динозаврами, правит бал дикая природа, но внезапно ... 10 10 7
Торрент: Зарегистрирован [2018-09-28 06:16] · скачан: 141 раз
Статус: √ проверено
Размер: 15.61 GB
Как cкачать? Как скачать Мир Юрского периода 2 в 3Д через торрент | UTorrent

28-11-2019 20:33  

Отключить всю рекламу на сайте

03-01-2020 21:21 Мир Юрского периода 2 в 3Д Скачать торрент  

Ау!!!! куда все сбежали, дайте скорости....pb.wtf



    Дорогой пользователь! Огромная просьба, поблагодарите релизера, оцените раздачу и оставьте свои комментарий, если Вы скачали Мир Юрского периода 2 в 3Д через торрент бесплатно! Внесите свою лепту в развитие PiratBit!
    Комментировать посты могут только пользователи прошедшие не сложную регистрацию
    Показать сообщения:    

    Мир Юрского периода 2 в 3Д через торрент
    Скачать бесплатно Мир Юрского периода 2 в 3Д
    Мир Юрского периода 2 в 3Д скачать торрент
    Мир Юрского периода 2 в 3Д смотреть онлайн
    Cкачать фильм Мир Юрского периода 2 в 3Д бесплатно
    Мир Юрского периода 2 в 3Д скачать торрент в хорошем качестве
    Мир Юрского периода 2 в 3Д смотреть онлайн бесплатно в хорошем качестве


    Вы не можете начинать темы
    Вы не можете отвечать на сообщения
    Вы не можете редактировать свои сообщения
    Вы не можете удалять свои сообщения
    Вы не можете голосовать в опросах
    Вы не можете прикреплять файлы к сообщениям
    Вы можете скачивать файлы