Ребята, если до конца года каждый наш пользователь пожертвует хотя бы 10 рублей, нам хватит денег оплатить все наши расходы.

iTunes

iTunes

Миссия невыполнима: Последствия

iTunes

Поиск

4 сезон

дом

MVO

venom

iTunes

Багровая мята

iTunes

Проклятие монахини

iTunes

Человек на Луне

ИГРА 18+

pack

RePack

Battlefield V Хит недели

RePack

Assassins Creed: Odyssey
pack

RePack

Darksiders 3

iTunes 4K

Миссия невыполнима: Последствия

RePack

fifa19

!!Акция!!

Alien_RageХит недели

RePack

NEED FOR SPEED™ PAYBACK

SATRip

9 сезон

Бесстыжие 9 сезон

Все сериалы

все сериалы на PB.wtf

iTunes

Мэнди

RePack

FAR CRY 5
  

Закусочная на колёсах / Kuai can che (Саммо Хунг Кам-Бо) [1984 г., боевик, комедия, BDRip 720p / 60 FPS,] MVO от R.G. HD-Films

Закусочная на колёсах через торрент

Качают: 1 [ 0 KB/s ]
Размер: 3.78 GB | Добавлен: 3 мес. 5 д. назад | Торрент скачан:117 раз
Скачать  

14-09-2018 06:40 Закусочная на колёсах Скачать торрент  

Закусочная на колёсах / Kuai can che
Год выпуска: 1984
Страна: Гонконг, Испания
Жанр: боевик, комедия
Продолжительность: 01:48:32
Перевод: Профессиональный (многоголосый, закадровый)

Режиссер: Саммо Хунг Кам-Бо

Премьера в мире: 17 августа 1984



В ролях: Джеки Чан, Саммо Хунг, Юэнь Бяо, Лола Форнер, Бенни Уркидез, Кит Витали, Херб Эдельман, Сьюзана Сенетес, Мерседес Альберт, Монтсеррат Хулио, Луис Монте, Ампаро Морено, Ричард ЭнДжи, Луис Паленсуэла, Хосе Санчо, Джон Шам, Ву Ма, Пол Чанг

Описание: Два энергичных китайца организовали в Барселоне передвижную харчевню. Их желтый фургончик дарит людям вкусную еду и очаровательный китайско - испанский сервис. Но однажды всю их выручку похищает хитрая Синьорита Сильвия. Масса самых забавных ситуаций, сумасшедшие гонки на автокухне, виртуозные сцены рукопашных поединков и, как всегда, полный задора и отточенности в движениях Джеки Чан!

Качество: BDRip 720p / 60 FPS
Формат: MKV
Видео кодек: H.264
Аудио кодек: AC3
Видео: x264, 1280 x 696 (1,85:1), 4508 kbps, 59,880 fps, (0.084 bpp)
Аудио#1: Русский, AC-3, 48.0 KHz, 2 ch, 384 Kbps Профессиональный (многоголосый, закадровый)

скриншот   скриншот   скриншот   скриншот   скриншот  
Автор рипа: slaventi-69
x264 [info]: frame I:2690 Avg QP:15.23 size:100947
x264 [info]: frame P:90441 Avg QP:18.95 size: 25025
x264 [info]: frame B:297237 Avg QP:22.68 size: 4079
x264 [info]: consecutive B-frames: 2.3% 2.2% 6.8% 9.2% 79.4%


Общее
Уникальный идентификатор : 246673317719688123965900710756014443771 (0xB9938D8B5D133CF9889BDC5C8C714CFB)
Полное имя : D:\Kuai.can.che.(1984).BDRip.720p.(60 Fps).mkv
Формат : Matroska
Версия формата : Version 4 / Version 2
Размер файла : 3,78 Гбайт
Продолжительность : 1 ч. 48 м.
Общий поток : 4991 Кбит/сек
Название фильма : Закусочная на колесах / Kuai can che (1984) BDRip.720p.(60 Fps)
Дата кодирования : UTC 2018-09-14 06:07:26
Программа кодирования : mkvmerge v12.0.0 ('Trust / Lust') 64bit
Библиотека кодирования : libebml v1.3.4 + libmatroska v1.4.5
DURATION : 01:48:32.704000000
NUMBER_OF_FRAMES : 203522
NUMBER_OF_BYTES : 312609792
_STATISTICS_WRITING_APP : mkvmerge v12.0.0 ('Trust / Lust') 64bit
_STATISTICS_WRITING_DATE_UTC : 2018-09-14 06:07:26
_STATISTICS_TAGS : BPS DURATION NUMBER_OF_FRAMES NUMBER_OF_BYTES

Видео
Идентификатор : 1
Формат : AVC
Формат/Информация : Advanced Video Codec
Профиль формата : High@L4.1
Параметр CABAC формата : Да
Параметр ReFrames формата : 4 кадра
Идентификатор кодека : V_MPEG4/ISO/AVC
Продолжительность : 1 ч. 48 м.
Битрейт : 4508 Кбит/сек
Ширина : 1280 пикселей
Высота : 696 пикселей
Соотношение сторон : 1,85:1
Режим частоты кадров : Постоянный
Частота кадров : 59,880 кадров/сек
Частота кадров в оригинале : 59,940 кадров/сек
Цветовое пространство : YUV
Субдискретизация насыщенности : 4:2:0
Битовая глубина : 8 бит
Тип развёртки : Прогрессивная
Бит/(Пиксели*Кадры) : 0.084
Размер потока : 3,42 Гбайт (90%)
Заголовок : slaventi-69 ( R.G. HD-Films | 60 fps )
Библиотека кодирования : x264 core 130 r2273 b3065e6
Настройки программы : cabac=1 / ref=4 / deblock=1:0:0 / analyse=0x3:0x113 / me=umh / subme=9 / psy=1 / psy_rd=1.00:0.00 / mixed_ref=1 / me_range=24 / chroma_me=1 / trellis=2 / 8x8dct=1 / cqm=0 / deadzone=21,11 / fast_pskip=1 / chroma_qp_offset=-2 / threads=8 / lookahead_threads=4 / sliced_threads=0 / nr=0 / decimate=1 / interlaced=0 / bluray_compat=0 / constrained_intra=0 / bframes=4 / b_pyramid=2 / b_adapt=2 / b_bias=0 / direct=2 / weightb=1 / open_gop=0 / weightp=2 / keyint=250 / keyint_min=25 / scenecut=40 / intra_refresh=0 / rc_lookahead=40 / rc=crf / mbtree=1 / crf=16.7 / qcomp=0.60 / qpmin=0 / qpmax=69 / qpstep=4 / ip_ratio=1.40 / aq=1:1.00
Язык : Chinese
Default : Да
Forced : Нет

Аудио
Идентификатор : 2
Формат : AC-3
Формат/Информация : Audio Coding 3
Расширение режима : CM (complete main)
Параметр Endianness формата : Big
Идентификатор кодека : A_AC3
Продолжительность : 1 ч. 48 м.
Вид битрейта : Постоянный
Битрейт : 384 Кбит/сек
Каналы : 2 канала
Расположение каналов : Front: L R
Частота : 48,0 КГц
Битовая глубина : 16 бит
Метод сжатия : С потерями
Размер потока : 298 Мбайт (8%)
Заголовок : MVO
Язык : Russian
Default : Да
Forced : Да




Скачать Закусочная на колёсах через торрент http://img11.lostpic.net/2017/06/21/e99987255539ed8bcf81d133060b9b44.png Скачать фильм Закусочная на колёсах через торрент бесплантно в хорошем качестве Описание: Два энергичных китайца организовали в Барселоне передвижную харчевню. Их желтый фургончик дарит людям вкусную еду и ... 9.7 10 30
Info! Золотая раздача, скачанное не засчитывается.
Торрент: Зарегистрирован [2018-09-14 06:40] · скачан: 117 раз
Статус: √ проверено
Размер: 3.78 GB
Как cкачать? Как скачать Закусочная на колёсах через торрент | qTorrent


>> Регистрируемся здесь <<






Отзывы и комментарии о схеме читаем и пишем здесь: ---> Отзывы и комментарии о схеме

Новые благодарочки в телеграм довольных пользователей:
скриншот   скриншот   скриншот   скриншот   скриншот

14-09-2018 16:15 Закусочная на колёсах Скачать торрент  

84й, конечно Джеки- бодрячком. Наверняка фильм как в большинстве случаев хорош для всех, кто любит его творчество.

Блин, привык к другой системе оценок- тут запилил 1 из 10 . Сорь, хотел наоборот



15-09-2018 13:59 Закусочная на колёсах Скачать торрент  

Автору спасибо, надо посмотреть на досуге)



05-12-2018 18:49 Закусочная на колёсах Скачать торрент  

качаю уже как 7 часов) всего 8мб скачал)



    Дорогой пользователь! Огромная просьба, поблагодарите релизера, оцените раздачу и оставьте свои комментарий, если Вы скачали Закусочная на колёсах через торрент бесплатно! Внесите свою лепту в развитие PiratBit!
    Комментировать посты могут только пользователи прошедшие не сложную регистрацию
    Показать сообщения:    

    Закусочная на колёсах через торрент
    Скачать бесплатно Закусочная на колёсах
    Закусочная на колёсах скачать торрент
    Закусочная на колёсах смотреть онлайн
    Cкачать фильм Закусочная на колёсах бесплатно
    Закусочная на колёсах скачать торрент в хорошем качестве
    Закусочная на колёсах смотреть онлайн бесплатно в хорошем качестве


    Вы не можете начинать темы
    Вы не можете отвечать на сообщения
    Вы не можете редактировать свои сообщения
    Вы не можете удалять свои сообщения
    Вы не можете голосовать в опросах
    Вы не можете прикреплять файлы к сообщениям
    Вы можете скачивать файлы