Ссылка на приватное зеркало всего за 1$. Внимание количество ограничено!!!

iTunes

1+1

iTunes

мы

WEB-DL

1

iTunes

Чернобыль

iTunes

Ральф против интернета

Лицензия

ПШазам

Лицензия

Оно 2

Лицензия

30
pack

Вам бонус

ВАЖНО

!!Акция!!

Alien_RageХит недели

RePack

Resident Evil 21

ИГРА 18+

pack

RePack

jed

!!Акция!!

Alien_Rage

RePack

fifa19

RePack

Assassins Creed: Odyssey

RePack

NEED FOR SPEED™ PAYBACK

3 сезон

9 сезон

Бесстыжие 9 сезон

Все сериалы

все сериалы на PB.wtf

RePack

FAR CRY 5
Ребята, катастрофически не хватает 1900р. для оплаты серверов за Октябрь (всвязи с блокировками трафик упал в 3 раза), 1-2р., выручайте.
  

Наша улица (Али Саттар Атакишиев) [1961, СССР, драма, WEB-DLRip от AVP Studio] pb.wtf

Наша улица через торрент pb.wtf

Размер: 1.09 GB | Добавлен: 1 год 2 мес. назад | Торрент скачан:10 раз
Скачать  

15-09-2018 07:51 Наша улица Скачать торрент  

Наша улица
Страна: СССР
Производство: Азербайджанфильм

Жанр: драма
Год выпуска: 1961
Продолжительность: 00:24:27

Перевод: Не требуется
Cубтитры: нет
Оригинальная аудиодорожка: русский

Режиссер: Али Саттар Атакишиев

В ролях:
Римма Мамедова, Атая Алиева, Агададаш Курбанов, Гюндуз Аббасов, Гиули Чохонелидзе, Сона Асланова, Николай Бармин, Николай Волков (старший), Юрий Аверин, Дмитрий Орлов, Мовсун Санани, Осман Хакки, Бахадур Алиев, Мелик Дадашев, Талят Рахманов, Нодар Шашик-оглы, Юсиф Юлдус, А. Анатоллы, Гафар Хакки, Акбар Фарзалиев, Лев Грубер, Ахмед Ахмедов...
Об актёрах подробней

Описание:
Радостно обживают новый дом в Баку новосёлы. Среди них - инженеры Расим и Муса, токарь Фуад (Гиули Чохонелидзе), семья нефтяника Барышева, врач Бахрам, одинокая тетушка Бегим. Однажды на экране телевизора, в кинохронике войны, тетушка Бегим узнаёт свою дочь Сару, которую она считала погибшей. Все новосёлы начинают поиски Сары. Фуад посылает телеграмму в село, где тетушка Бегим потеряла Сару, и узнаёт, что всё население было угнано фашистами. Муса вспоминает, что о девочке-бакинке ему рассказывал легендарный партизан Мехти, встретивший её в фашистском тылу - в Триесте...

Исходник: WEB-DL 576i
Качество видео: WEB-DLRip
Формат видео: AVI

Видео: 704x496 (1,419:1), 25,000 кадров/сек, XviD ~ 1646 kbps avg, 0.189 bit/pixel
Аудио: 48 kHz, Dolby Digital AC3 2.0, 192 kbps

Раздача от:
Общее
Полное имя : Nasha.ulica.1961.WEB-DLRip_[New-team]_by_AVP_Studio.avi
Формат : AVI
Формат/Информация : Audio Video Interleave
Размер файла : 1,09 Гбайт
Продолжительность : 1 ч. 24 м.
Общий поток : 1847 Кбит/сек
Программа кодирования : VirtualDubMod 1.5.10.3 | www.virtualdub-fr.org || (build 2550/release)
Библиотека кодирования : VirtualDubMod build 2550/release

Видео
Идентификатор : 0
Формат : MPEG-4 Visual
Профиль формата : Advanced Simple@L5
Настройки формата : BVOP1 / Custom Matrix
Параметр BVOP формата : 1
Параметр QPel формата : Нет
Параметр GMC формата : Без точки перехода
Параметр матрицы формата : Выборочная
Идентификатор кодека : XVID
Идентификатор кодека/Подсказка : XviD
Продолжительность : 1 ч. 24 м.
Битрейт : 1646 Кбит/сек
Ширина : 704 пикселя
Высота : 496 пикселей
Соотношение сторон : 1,419
Частота кадров : 25,000 кадров/сек
Цветовое пространство : YUV
Субдискретизация насыщенности : 4:2:0
Битовая глубина : 8 бит
Тип развёртки : Прогрессивная
Метод сжатия : С потерями
Бит/(Пиксели*Кадры) : 0.189
Размер потока : 994 Мбайт (89%)
Библиотека кодирования : XviD 73

Аудио
Идентификатор : 1
Формат : AC-3
Формат/Информация : Audio Coding 3
Коммерческое название : Dolby Digital
Идентификатор кодека : 2000
Продолжительность : 1 ч. 24 м.
Вид битрейта : Постоянный
Битрейт : 192 Кбит/сек
Каналы : 2 канала
Channel layout : L R
Частота : 48,0 КГц
Частота кадров : 31,250 кадров/сек (1536 SPF)
Битовая глубина : 16 бит
Метод сжатия : С потерями
Размер потока : 116 Мбайт (10%)
Выравнивание : Разделение по промежуткам
Продолжительность промежутка : 40 мс. (1,00 видеокадр)
Время предзагрузки промежутка : 500 мс
pb.wtf



Скачать Наша улица через торрент http://picplus.ru/img/1809/15/113c8b39.png Скачать фильм Наша улица через торрент бесплантно в хорошем качестве Описание:Радостно обживают новый дом в Баку новосёлы. Среди них - инженеры Расим и Муса, токарь Фуад (Гиули Чохонелидзе), семья нефтяника ... 5 10 1
Торрент: Зарегистрирован [2018-09-15 07:51] · скачан: 10 раз
Статус: √ проверено
Размер: 1.09 GB
Как cкачать? Как скачать Наша улица через торрент | qTorrent

% Раздел Тема Автор DL S | L
Детские отечественные фильмы [ 1.09 GB ] Команда с нашей улицы [1953 СССР детский VHSRip-AVC от AVP Studio] AVP Studio Скачать
2 | 0
Детские отечественные фильмы [ 1.09 GB ] Команда с нашей улицы [1953 СССР детский VHSRip от AVP Studio] AVP Studio Скачать
1 | 0
Кино СССР [ 1.09 GB ] Наша улица [1961 СССР WEB-DLRip-AVC от AVP Studio] AVP Studio Скачать
1 | 0

28-11-2019 20:33  

Отключить всю рекламу на сайте

    Дорогой пользователь! Огромная просьба, поблагодарите релизера, оцените раздачу и оставьте свои комментарий, если Вы скачали Наша улица через торрент бесплатно! Внесите свою лепту в развитие PiratBit!
    Комментировать посты могут только пользователи прошедшие не сложную регистрацию
    Показать сообщения:    

    Наша улица через торрент
    Скачать бесплатно Наша улица
    Наша улица скачать торрент
    Наша улица смотреть онлайн
    Cкачать фильм Наша улица бесплатно
    Наша улица скачать торрент в хорошем качестве
    Наша улица смотреть онлайн бесплатно в хорошем качестве


    Вы не можете начинать темы
    Вы не можете отвечать на сообщения
    Вы не можете редактировать свои сообщения
    Вы не можете удалять свои сообщения
    Вы не можете голосовать в опросах
    Вы не можете прикреплять файлы к сообщениям
    Вы можете скачивать файлы