Ссылка на приватное зеркало нашего сайта всего за 1$. Внимание количество ограничено!!!

2 сезон

iTunes

1 сезон

1

2 сезон

2 сезон

iTunes

1 сезон

RePack

30

Ultimate

ВАЖНО

ИГРА 18+

pack

RePack

MK11
pack

Забери бонус

RePack

jed

!!Акция!!

Alien_Rage

RePack

fifa19

RePack

Assassins Creed: Odyssey

RePack

NEED FOR SPEED™ PAYBACK

4 сезон

9 сезон

Бесстыжие 9 сезон

Все сериалы

все сериалы на PB.wtf

RePack

FAR CRY 5
  

Майянцы / Майя МС / Mayans M.C. / Сезон: 1 / Серии: 1-10 из 10 (Норберто Барба, Курт Саттер, Гай Ферленд) [2018, Драма, Криминал, WEB-DLRip] MVO [LostFilm] pb.wtf

Майянцы через торрент pb.wtf

Размер: 7.49 GB | Добавлен: 2 года назад | Торрент скачан:132 раза
Скачать  

15-09-2018 14:02 Майянцы Скачать торрент  

Майянцы / Майя МС / Mayans M.C.
Год выпуска: 2018
Страна: США
Жанр: Драма, Криминал
Продолжительность: ~ 01:09:00 серия
Перевод: Профессиональный многоголосый | LostFilm
Субтитры: отсутствуют

Режиссер: Норберто Барба, Курт Саттер, Гай Ферленд

rating

В ролях:

Эдвард Джеймс Олмос, Джон Ортиз, Клинт Юнг, Эрик Од, Рик Крамер, Рэймонд Крус, Дэнни Грюнберг, Дж. ЛаРоуз, Жаклин Обрадорс, Александра Баррето, Марко Моралес, Сизар Делеон, Пабло Рамос, Том Биллет, Артуро Дель Пуэрто, Майкл Ирби, Педро Лопез, Дэниэл Лухан, Эмилио Ривера, Брайант Ромо, Гари Краус, Эфрат Дор, Джои Лучеро, Дэн Кули, Ганс Марреро, Сара Болгер, Винсент Варгас, Клэйтон Карденас

Описание:

События сериала начинаются через два с половиной года после финального эпизода сериала «Сыны анархии». Главный герой — Эзекьель Рейес, кандидат в члены клуба «маянцев» на границе Калифорнии и Мексики, который хочет отомстить наркокартелю

Качество: WEB-DLRip | Без заставки и логотипа LostFilm.
Формат: AVI

Видео: XviD, ~ 1550 Кбит/с, 720х400
Аудио#1: Русский (MP3, 2 ch, 128 Кбит/с)
Аудио#2: английский (MP3, 2 ch, 128 Кбит/с)
скриншот  скриншот  скриншот  

Общее
Полное имя : E:Майянцы (сезон 1) Mayans M.C. (2018) WEB-DLRip - LostFilm\Mayans.M.C.S01E01.WEB-DLRip.Rus.Eng.DV.LostFilm.avi
Формат : AVI
Формат/Информация : Audio Video Interleave
Размер файла : 868 Мбайт
Продолжительность : 1 ч. 8 м.
Общий поток : 1779 Кбит/сек
Название фильма : Mayans.M.C.S01E01.WEB-DLRip.Rus.Eng.DV.LostFilm / NNM-Club
Программа кодирования : VirtualDubModRus 1.5.10.2 (build 2542/release)
Библиотека кодирования : VirtualDubMod build 2542/release

Видео
Идентификатор : 0
Формат : MPEG-4 Visual
Профиль формата : Advanced Simple@L5
Настройки формата : BVOP2
Параметр BVOP формата : 2
Параметр QPel формата : Нет
Параметр GMC формата : Без точки перехода
Параметр матрицы формата : Default (H.263)
Идентификатор кодека : XVID
Идентификатор кодека/Подсказка : XviD
Продолжительность : 1 ч. 8 м.
Продолжительность оригинала : 37 м. 48 с.
Битрейт : 1501 Кбит/сек
Ширина : 720 пикселей
Высота : 400 пикселей
Соотношение сторон : 16:9
Частота кадров : 23,976 (24000/1001) кадра/сек
Цветовое пространство : YUV
Субдискретизация насыщенности : 4:2:0
Битовая глубина : 8 бит
Тип развёртки : Прогрессивная
Метод сжатия : С потерями
Бит/(Пиксели*Кадры) : 0.217
Размер потока : 406 Мбайт (47%)
Заголовок : Rip by DriverV / NNM-Club
Библиотека кодирования : XviD 67

Аудио #1
Идентификатор : 1
Формат : MPEG Audio
Версия формата : Version 1
Профиль формата : Layer 3
Настройки формата : Joint stereo / MS Stereo
Идентификатор кодека : 55
Идентификатор кодека/Подсказка : MP3
Продолжительность : 1 ч. 8 м.
Продолжительность оригинала : 37 м. 48 с.
Вид битрейта : Постоянный
Битрейт : 128 Кбит/сек
Каналы : 2 канала
Частота : 48,0 КГц
Метод сжатия : С потерями
Размер потока : 34,6 Мбайт (4%)
Выравнивание : Соединение по промежуткам
Продолжительность промежутка : 42 мс. (1,00 видеокадр)
Время предзагрузки промежутка : 504 мс.

Аудио #2
Идентификатор : 2
Формат : MPEG Audio
Версия формата : Version 1
Профиль формата : Layer 3
Настройки формата : Joint stereo / MS Stereo
Идентификатор кодека : 55
Идентификатор кодека/Подсказка : MP3
Продолжительность : 1 ч. 8 м.
Продолжительность оригинала : 37 м. 48 с.
Вид битрейта : Постоянный
Битрейт : 128 Кбит/сек
Каналы : 2 канала
Частота : 48,0 КГц
Метод сжатия : С потерями
Размер потока : 34,6 Мбайт (4%)
Выравнивание : Соединение по промежуткам
Продолжительность промежутка : 42 мс. (1,00 видеокадр)
Время предзагрузки промежутка : 504 мс.

Когда раздача ведётся путём добавления новых серий, при каждом добавлении создётся новый торрент. Чтобы начать докачку новой серии, пользователям необходимо сделать следующее:
(1) остановить скачивание,
(2) удалить старый торрент у себя из клиента (старые серии удалять не надо),
(3) скачать новый торрент и запустить его у себя в клиенте вместо старого, при этом указать клиенту путь в старую папку, куда и должно происходить скачивание новых серий.
Ваш клиент при этом должен произвести хеширование (проверку) старой папки (если не производит сам - помогите ему сделать это), и будет докачивать только те серии, которых у вас ещё нет. Старые серии при этом не удаляются, а продолжают раздаваться!
Eсли вы уже удалили старые серии, то предотвратить повторную закачку старых серий можно, отжав галочку в соответствующих местах при запуске нового торрента. По возможности, желательно не удалять старые серии как можно дольше, чтобы релизер не столько продолжал раздавать старые серии, а смог сконцентрироваться на новых.
pb.wtf



Скачать Майянцы через торрент http://b.radikal.ru/b16/1809/aa/3454ae8464fe.jpg Скачать фильм Майянцы через торрент бесплантно в хорошем качестве Описание: События сериала начинаются через два с половиной года после финального эпизода сериала «Сыны анархии». Главный герой — Эзекьель ... 8.4 10 8
Info! Золотая раздача, скачанное не засчитывается.
Торрент: Зарегистрирован [2018-11-09 08:00] · скачан: 132 раз
Статус: √ проверено
Размер: 7.49 GB
Как cкачать? Как скачать Майянцы через торрент | qTorrent

% Раздел Тема Автор DL S | L
Зарубежные сериалы [ 8.88 GB ] Майянцы / Майя МС / Mayans M.C. / Сезон: 2 / Серии: 1-10 из 10 [2019 WEBRip] MVO [TVShows] bober100 Скачать
1 | 0
Зарубежные сериалы [ 7.39 GB ] Майя МС / Майянцы / Mayans M.C. / Сезон: 2 / Серии: 1-10 из 10 [2019 WEB-DLRip] MVO [LostFilm] bober100 Скачать
1 | 0
Зарубежные сериалы [ 21.95 GB ] Майя МС / Майянцы / Mayans M.C. / Сезон: 2 / Серия: 1-10 из 10 [2019 WEB-DL 720p] MVO [TVShows] bober100 Скачать
1 | 0
Зарубежные сериалы [ 47.21 GB ] Майя МС / Майянцы / Mayans M.C. / Сезон: 2 / Серия: 1-10 из 10 [2019 WEB-DL 1080p] MVO [TVShows] bober100 Скачать
1 | 0
Зарубежные сериалы [ 25.02 GB ] Майя МС / Майянцы / Mayans M.C. / Сезон: 2 / Серии: 1-10 из 10 [2019 WEB-DL 720p] MVO [LostFilm] bober100 Скачать
1 | 0
Зарубежные сериалы [ 41.88 GB ] Майя МС / Майянцы / Mayans M.C. / Сезон: 2 / Серия: 1-10 из 10 [2019 WEB-DL 1080p] MVO [LostFilm] bober100 Скачать
1 | 0
Зарубежные сериалы [ 9.83 GB ] Майянцы / Майя МС / Mayans M.C. / Сезон: 1 / Серии: 1-10 из 10 [2018 WEB-DLRip] MVO [TVShows] bober100 Скачать
1 | 0

28-11-2019 20:33  

Отключить всю рекламу на сайте

    Дорогой пользователь! Огромная просьба, поблагодарите релизера, оцените раздачу и оставьте свои комментарий, если Вы скачали Майянцы через торрент бесплатно! Внесите свою лепту в развитие PiratBit!
    Комментировать посты могут только пользователи прошедшие не сложную регистрацию
    Показать сообщения:    

    Майянцы через торрент
    Скачать бесплатно Майянцы
    Майянцы скачать торрент
    Майянцы смотреть онлайн
    Cкачать фильм Майянцы бесплатно
    Майянцы скачать торрент в хорошем качестве
    Майянцы смотреть онлайн бесплатно в хорошем качестве


    Вы не можете начинать темы
    Вы не можете отвечать на сообщения
    Вы не можете редактировать свои сообщения
    Вы не можете удалять свои сообщения
    Вы не можете голосовать в опросах
    Вы не можете прикреплять файлы к сообщениям
    Вы можете скачивать файлы