Ссылка на приватное зеркало всего за 1$. Внимание количество ограничено!!!

OK

1+1

iTunes

мы

OK

1

WEB-DLRip

Джокер

Пифагор

Ведьмак / The Witcher сериал

iTunes

ПШазам

ОК

Оно 2

iTunes

30
pack

Вам бонус

ВАЖНО

!!Акция!!

Alien_RageХит недели

RePack

Resident Evil 21

ИГРА 18+

pack

RePack

jed

RePack

fifa19

RePack

Assassins Creed: Odyssey

RePack

NEED FOR SPEED™ PAYBACK

4 сезон

9 сезон

Бесстыжие 9 сезон

Все сериалы

все сериалы на PB.wtf

RePack

FAR CRY 5
  

Кукла Мэнди / Mandy the Doll (Джэми Уэстон) [2018 г., Ужасы, DVDRip, Любительский (многоголосый)] [Синема УС] pb.wtf

Кукла Мэнди через торрент pb.wtf

Размер: 1.41 GB | Добавлен: 1 год 4 мес. назад | Торрент скачан:55 раз
Скачать  

16-09-2018 05:27 Кукла Мэнди Скачать торрент  

Кукла Мэнди / Mandy the Doll
Год выпуска: 2018
Страна: Великобритания
Жанр: Ужасы
Продолжительность: 01:20:15
Перевод: Любительский (многоголосый) | Синема УС
Субтитры: Отсутствуют

Режиссер: Джэми Уэстон

rating

В ролях: Фиби Торранс, Кейт Грир, Faye Goodwin, Луиса Уоррен, Oliver John Lee, Кассандра Френч, Penelope Read, Amy Burrows, Darrell Griggs, Manny Jai Montana

Описание: Молодой женщине по имени Амбер поручено присматривать за маленькой девочкой, по имени Мэнди. Услышав шум в доме, Амбер идет к Мэнди, девочка исчезла, на ее месте появляется жуткая кукла. Теперь она должна спасать свою жизнь и попытаться разгадать тайну, избегая преследования куклы.

Качество: DVDRip
Формат: AVI
Видео кодек: XviD
Аудио кодек: AC3
Видео: XviD, 720x304 , 23.9fps, 1741 Kbps
Аудио#1: AC3 , 2 ch , 48 kHz , 384 kbps
скриншот   скриншот   скриншот   скриншот   скриншот   скриншот   скриншот  

Общее
Полное имя : D:Mandy.The.Haunted.Doll.2018.P.DVDRip.14OOMB_KOSHARA.avi
Формат : AVI
Формат/Информация : Audio Video Interleave
Размер файла : 1,41 Гбайт
Продолжительность : 1 ч. 20 м.
Общий поток : 2522 Кбит/сек
Программа кодирования : VirtualDubMod 1.5.10.2 (build 2540/release)
Библиотека кодирования : VirtualDubMod build 2540/release

Видео
Идентификатор : 0
Формат : MPEG-4 Visual
Профиль формата : Advanced Simple@L5
Параметр BVOP формата : 2
Параметр QPel формата : Нет
Параметр GMC формата : Без точки перехода
Параметр матрицы формата : Выборочная
Идентификатор кодека : XVID
Идентификатор кодека/Подсказка : XviD
Продолжительность : 1 ч. 20 м.
Битрейт : 1741 Кбит/сек
Ширина : 720 пикселей
Высота : 304 пикселя
Соотношение сторон : 2,35:1
Частота кадров : 23,976 кадра/сек
Цветовое пространство : YUV
Субдискретизация насыщенности : 4:2:0
Битовая глубина : 8 бит
Тип развёртки : Прогрессивная
Метод сжатия : С потерями
Бит/(Пиксели*Кадры) : 0.332
Размер потока : 999 Мбайт (69%)
Библиотека кодирования : XviD 1.2.1 (UTC 2008-12-04)

Аудио #1
Идентификатор : 1
Формат : AC-3
Формат/Информация : Audio Coding 3
Расширение режима : CM (complete main)
Параметр Endianness формата : Big
Идентификатор кодека : 2000
Продолжительность : 1 ч. 20 м.
Вид битрейта : Постоянный
Битрейт : 384 Кбит/сек
Каналы : 2 канала
Расположение каналов : Front: L R
Частота : 48,0 КГц
Битовая глубина : 16 бит
Метод сжатия : С потерями
Размер потока : 220 Мбайт (15%)
Выравнивание : Разделение по промежуткам
Продолжительность промежутка : 42 мс. (1,00 видеокадр)
Время предзагрузки промежутка : 500 мс.

pb.wtf



Скачать Кукла Мэнди через торрент http://pic1.kartinco.top/images/11/gih6n.jpg Скачать фильм Кукла Мэнди через торрент бесплантно в хорошем качестве Описание: Молодой женщине по имени Амбер поручено присматривать за маленькой девочкой, по имени Мэнди. Услышав шум в доме, Амбер идет к ... 10 10 3
Торрент: Зарегистрирован [2018-09-16 05:27] · скачан: 55 раз
Статус: T временная
Размер: 1.41 GB
Как cкачать? Как скачать Кукла Мэнди через торрент | qTorrent

28-11-2019 20:33  

Отключить всю рекламу на сайте

    Дорогой пользователь! Огромная просьба, поблагодарите релизера, оцените раздачу и оставьте свои комментарий, если Вы скачали Кукла Мэнди через торрент бесплатно! Внесите свою лепту в развитие PiratBit!
    Комментировать посты могут только пользователи прошедшие не сложную регистрацию
    Показать сообщения:    

    Кукла Мэнди через торрент
    Скачать бесплатно Кукла Мэнди
    Кукла Мэнди скачать торрент
    Кукла Мэнди смотреть онлайн
    Cкачать фильм Кукла Мэнди бесплатно
    Кукла Мэнди скачать торрент в хорошем качестве
    Кукла Мэнди смотреть онлайн бесплатно в хорошем качестве


    Вы не можете начинать темы
    Вы не можете отвечать на сообщения
    Вы не можете редактировать свои сообщения
    Вы не можете удалять свои сообщения
    Вы не можете голосовать в опросах
    Вы не можете прикреплять файлы к сообщениям
    Вы можете скачивать файлы