Ссылка на приватное зеркало нашего сайта всего за 1$. Внимание количество ограничено!!!

2 сезон

iTunes

1 сезон

1

2 сезон

2 сезон

iTunes

1 сезон

RePack

30

Новинка

ВАЖНО

ИГРА 18+

pack

RePack

MK11
pack

Забери бонус

RePack

jed

!!Акция!!

Alien_Rage

RePack

fifa19

RePack

Assassins Creed: Odyssey

RePack

NEED FOR SPEED™ PAYBACK

4 сезон

9 сезон

Бесстыжие 9 сезон

Все сериалы

все сериалы на PB.wtf

RePack

FAR CRY 5
  

Первые / The First / Сезон: 1 / Серии: 1-8 из 8 (Агнешка Холланд, Дениз Гамзе Эргювен, Ариел Кляйман) [2018, фантастика, драма, WEBRip 720p] DVO [SunshineStudio] pb.wtf

Первые через торрент pb.wtf

Размер: 5.03 GB | Добавлен: 2 года 2 мес. назад | Торрент скачан:129 раз
Скачать  

16-09-2018 08:41 Первые Скачать торрент  

Первые / The First
Год выпуска: 2018
Страна: США
Жанр: фантастика, драма
Продолжительность: ~ 00:45:00
Перевод: Любительский (двухголосый) |
Субтитры: отсутствуют

Режиссер: Агнешка Холланд, Дениз Гамзе Эргювен, Ариел Кляйман

rating

В ролях:

Шон Пенн, Рей Лукас, Брайан Франклин, Т.С. Мэтерн, Лиза Гэй Хэмилтон, Ханна Уэр, Джеймс Рэнсон, Анна Джэкоби-Херон, Одед Фер, Наташа МакЭлхоун

Описание:

Действие разворачивается в недалеком будущем. Группа инженеров, ученых и астронавтов отправляется в первый пилотируемый полет на Марс с целью колонизировать Красную планету. Экспедиция, одним из участников которой является бывший астронавт НАСА Том Хаггерти, сталкивается с многочисленными трудностями, непростые времена переживают родные и близкие колонистов, оставшиеся на Земле, а также наземные специалисты.

Качество: WEBRip 720p
Формат: MKV

Видео: MPEG-4 AVC, ~ 1900 Кбит/с, 1280x640
Аудио: AC3, 2 ch, 192 Кбит/с
скриншот  скриншот  скриншот  

Общее
Уникальный идентификатор : 241981401759375455991671270005156234413 (0xB60BEC3A37807A788F0D9CA1F73244AD)
Полное имя : D:\The.First.S01.720p.SunshineStudio\The.First.S01E01.720p.SunshineStudio.mkv
Формат : Matroska
Версия формата : Version 4 / Version 2
Размер файла : 689 Мбайт
Продолжительность : 46 м. 13 с.
Общий поток : 2085 Кбит/сек
Дата кодирования : UTC 2018-09-15 12:25:46
Программа кодирования : mkvmerge v8.3.0 ('Over the Horizon') 64bit
Библиотека кодирования : libebml v1.3.1 + libmatroska v1.4.2

Видео
Идентификатор : 1
Формат : AVC
Формат/Информация : Advanced Video Codec
Профиль формата : High@L3.1
Параметр CABAC формата : Да
Параметр RefFrames формата : 4 кадра
Идентификатор кодека : V_MPEG4/ISO/AVC
Продолжительность : 46 м. 12 с.
Битрейт : 1891 Кбит/сек
Ширина : 1280 пикселей
Высота : 640 пикселей
Соотношение сторон : 2,000
Режим частоты кадров : Постоянный
Частота кадров : 23,976 кадра/сек
Цветовое пространство : YUV
Субдискретизация насыщенности : 4:2:0
Битовая глубина : 8 бит
Тип развёртки : Прогрессивная
Бит/(Пиксели*Кадры) : 0.096
Размер потока : 625 Мбайт (91%)
Библиотека кодирования : x264 core 146 r2538 121396c
Настройки программы : cabac=1 / ref=1 / deblock=1:0:0 / analyse=0x3:0x113 / me=hex / subme=2 / psy=1 / psy_rd=1.00:0.10 / mixed_ref=0 / me_range=16 / chroma_me=1 / trellis=0 / 8x8dct=1 / cqm=0 / deadzone=21,11 / fast_pskip=1 / chroma_qp_offset=0 / threads=18 / lookahead_threads=5 / sliced_threads=0 / nr=0 / decimate=1 / interlaced=0 / bluray_compat=0 / constrained_intra=0 / bframes=3 / b_pyramid=2 / b_adapt=1 / b_bias=0 / direct=1 / weightb=1 / open_gop=0 / weightp=1 / keyint=250 / keyint_min=23 / scenecut=40 / intra_refresh=0 / rc_lookahead=10 / rc=crf / mbtree=1 / crf=17.0 / qcomp=0.60 / qpmin=0 / qpmax=69 / qpstep=4 / ip_ratio=1.40 / aq=1:1.00
Default : Да
Forced : Нет

Аудио
Идентификатор : 2
Формат : AC-3
Формат/Информация : Audio Coding 3
Расширение режима : CM (complete main)
Параметр Endianness формата : Big
Идентификатор кодека : A_AC3
Продолжительность : 46 м. 13 с.
Вид битрейта : Постоянный
Битрейт : 192 Кбит/сек
Каналы : 2 канала
Расположение каналов : Front: L R
Частота : 48,0 КГц
Частота кадров : 31,250 кадров/сек (1536 spf)
Метод сжатия : С потерями
Размер потока : 63,5 Мбайт (9%)
Default : Да
Forced : Нет

pb.wtf



Скачать Первые через торрент http://img11.lostpic.net/2018/09/16/649ab889e9d17770ee7c0c6b18c599f0.jpg Скачать фильм Первые через торрент бесплантно в хорошем качестве Описание: Действие разворачивается в недалеком будущем. Группа инженеров, ученых и астронавтов отправляется в первый пилотируемый полет на ... 10 10 2
Торрент: Зарегистрирован [2018-09-16 08:41] · скачан: 129 раз
Статус: √ проверено
Размер: 5.03 GB
Как cкачать? Как скачать Первые через торрент | qTorrent

% Раздел Тема Автор DL S | L
Зарубежные сериалы [ 4.56 GB ] Первые / The First / Сезон: 1 / Серии: 1-8 из 8 [2018 HDTVRip] [MVO] killermax2013 Скачать
1 | 0
Зарубежные сериалы [ 2.02 GB ] Первые / The First / Сезон: 1 / Серии: 1-3 из 8 [2018 WEB-DL 720p] [DVO] killermax2013 Скачать
1 | 0
Зарубежные сериалы [ 3.05 GB ] Первые / The First / Сезон: 1 / Серии: 1-8 из 8 [2018 WEBRip] MVO [LostFilm] bober100 Скачать
1 | 0
Зарубежные сериалы [ 4.75 GB ] Первые / The First / Сезон: 1 / Серии: 1-8 из 8 [2018 WEBRip] DVO [SunshineStudio] bober100 Скачать
1 | 0

28-11-2019 20:33  

Отключить всю рекламу на сайте

    Дорогой пользователь! Огромная просьба, поблагодарите релизера, оцените раздачу и оставьте свои комментарий, если Вы скачали Первые через торрент бесплатно! Внесите свою лепту в развитие PiratBit!
    Комментировать посты могут только пользователи прошедшие не сложную регистрацию
    Показать сообщения:    

    Первые через торрент
    Скачать бесплатно Первые
    Первые скачать торрент
    Первые смотреть онлайн
    Cкачать фильм Первые бесплатно
    Первые скачать торрент в хорошем качестве
    Первые смотреть онлайн бесплатно в хорошем качестве


    Вы не можете начинать темы
    Вы не можете отвечать на сообщения
    Вы не можете редактировать свои сообщения
    Вы не можете удалять свои сообщения
    Вы не можете голосовать в опросах
    Вы не можете прикреплять файлы к сообщениям
    Вы можете скачивать файлы