новый адрес пиратбит piratbit
Мега распродажа FORZA HORIZON 4 ULTIMATE+ВСЕ DLC+ОНЛАЙН всего за 499р. 349 руб. (супер цена). Внимание количество ограничено!!!

iTunes

1+1

iTunes

мы

iTunes

1

iTunes

Чернобыль

iTunes

Ральф против интернета

Лицензия

ПШазам

Лицензия

Игра престолов

Лицензия

30
pack

ВАЖНО

!!Акция!!

Alien_RageХит недели

RePack

Resident Evil 21

ИГРА 18+

pack

RePack

Metro:Exodus

!!Акция!!

Alien_Rage

RePack

fifa19

RePack

Assassins Creed: Odyssey

RePack

NEED FOR SPEED™ PAYBACK

3 сезон

9 сезон

Бесстыжие 9 сезон

Все сериалы

все сериалы на PB.wtf

RePack

FAR CRY 5
Ребята, катастрофически не хватает 1900р. для оплаты серверов за Октябрь (всвязи с блокировками трафик упал в 3 раза), 1-2р., выручайте.
  

Дуэль (Татьяна Березанцева, Лев Рудник) [1961, СССР, драма, SATRip от AVP Studio] pb.wtf

Дуэль через торрент pb.wtf

Размер: 1.09 GB | Добавлен: 1 год 1 мес. назад | Торрент скачан:11 раз
Скачать  

16-09-2018 08:50 Дуэль Скачать торрент  

Дуэль
Страна: СССР
Производство: Мосфильм

Жанр: драма
Год выпуска: 1961
Продолжительность: 01:23:57

Перевод: Не требуется
Cубтитры: нет
Оригинальная аудиодорожка: русский

Режиссер: Татьяна Березанцева, Лев Рудник

В ролях:
Олег Стриженов, Владимир Дружников, Людмила Шагалова, Александр Хвыля, Леонид Кадров, Георгий Георгиу, Елена Кузьмина, Леонид Пирогов, Юрий Леонидов...
Об актёрах подробней

Описание:
По одноименной повести А.П. Чехова.
Мучимый никчемностью и скукой жизни, чиновник Лаевский (Олег Стриженов) жаждет любой ценой разорвать порочный круг своего существования. Его нравственный антипод, натуралист Фон Корен (Владимир Дружников), уверен, что люди, подобные Лаевскому, достойны уничтожения. Но, вопреки желаниям и воле героев, провидение по-своему распоряжается их судьбами...

Исходник: DVB
Качество видео: SATRip
Формат видео: AVI

Видео: 672x496 (4:3), 25,000 кадров/сек, XviD ~ 1657 kbps avg, 0.199 bit/pixel
Аудио: 48 kHz, Dolby Digital AC3 2.0, 192 kbps

Раздача от:
Общее
Полное имя : Duel.1961.SATRip_[New-team]_by_AVP_Studio.avi
Формат : AVI
Формат/Информация : Audio Video Interleave
Размер файла : 1,09 Гбайт
Продолжительность : 1 ч. 23 м.
Общий поток : 1859 Кбит/сек
Программа кодирования : VirtualDubMod 1.5.10.3 | www.virtualdub-fr.org || (build 2550/release)
Библиотека кодирования : VirtualDubMod build 2550/release

Видео
Идентификатор : 0
Формат : MPEG-4 Visual
Профиль формата : Advanced Simple@L5
Настройки формата : BVOP1 / Custom Matrix
Параметр BVOP формата : 1
Параметр QPel формата : Нет
Параметр GMC формата : Без точки перехода
Параметр матрицы формата : Выборочная
Идентификатор кодека : XVID
Идентификатор кодека/Подсказка : XviD
Продолжительность : 1 ч. 23 м.
Битрейт : 1657 Кбит/сек
Ширина : 672 пикселя
Высота : 496 пикселей
Соотношение сторон : 4:3
Частота кадров : 25,000 кадров/сек
Цветовое пространство : YUV
Субдискретизация насыщенности : 4:2:0
Битовая глубина : 8 бит
Тип развёртки : Прогрессивная
Метод сжатия : С потерями
Бит/(Пиксели*Кадры) : 0.199
Размер потока : 995 Мбайт (89%)
Библиотека кодирования : XviD 73

Аудио
Идентификатор : 1
Формат : AC-3
Формат/Информация : Audio Coding 3
Коммерческое название : Dolby Digital
Идентификатор кодека : 2000
Продолжительность : 1 ч. 23 м.
Вид битрейта : Постоянный
Битрейт : 192 Кбит/сек
Каналы : 2 канала
Channel layout : L R
Частота : 48,0 КГц
Частота кадров : 31,250 кадров/сек (1536 SPF)
Битовая глубина : 16 бит
Метод сжатия : С потерями
Размер потока : 115 Мбайт (10%)
Выравнивание : Разделение по промежуткам
Продолжительность промежутка : 40 мс. (1,00 видеокадр)
Время предзагрузки промежутка : 500 мс
pb.wtf



Скачать Дуэль через торрент http://picplus.ru/img/1809/16/5831cd7d.png Скачать фильм Дуэль через торрент бесплантно в хорошем качестве Описание:По одноименной повести А.П. Чехова.Мучимый никчемностью и скукой жизни, чиновник Лаевский (Олег Стриженов) жаждет любой ценой ... 5 10 1
Info! Золотая раздача, скачанное не засчитывается.
Торрент: Зарегистрирован [2018-09-16 08:50] · скачан: 11 раз
Статус: √ проверено
Размер: 1.09 GB
Как cкачать? Как скачать Дуэль через торрент | qTorrent

% Раздел Тема Автор DL S | L
Азиатские фильмы [ 7.32 GB ] Миямото Мусаси 4: Дуэль у храма Итидзёдзи / Miyamoto Musashi: Ichijoji no ketto [1964 Дзидай-гэки исторический эпос самурайский WEB-DLRip 720p от KORSAR][AVO ] HollySmoke Скачать
1 | 0
Азиатские фильмы [ 6.23 GB ] Миямото Мусаси 2: Дуэль у горы Хання / Miyamoto Musashi: Hannyazaka no ketto [1962 Дзидай-гэки исторический эпос самурайский WEB-DLRip 720p от KORSAR][AVO ] HollySmoke Скачать
1 | 0
Азиатские фильмы [ 7.24 GB ] Миямото Мусаси 5: Дуэль на острове Ганрю / Miyamoto Musashi: Ganryu-jima no ketto [1965 Дзидай-гэки исторический эпос самурайский WEB-DLRip 720p от KORSAR][AVO ] HollySmoke Скачать
1 | 0
Кино СССР [ 1.09 GB ] Дуэль [1961 СССР SATRip-AVC от AVP Studio] AVP Studio Скачать
1 | 0
Документальные фильмы и телепередачи [ 6.76 GB ] Дуэль разведок / 11 серий [2004 - 2005 документальный история кинохроника расследование SATRip] Леонид Ильич Скачать
2 | 0
T Релизы по Парсеру [Игры, Сериалы и Фильмы и другое...] [ 1.48 GB ] Дуэль братьев. История Adidas и Puma / Duell der Brüder - Die Geschichte von Adidas und Puma [2016 биография DVDRip-AVC] [MVO] killermax2013 Скачать
2 | 0
Фильмы 2016 [DVDrip, WEB-DLRip, HDrip] (DUB, MVO) [ 1.41 GB ] Дуэль / The Duel [2016 BDRip] многоголосый Twi7ter Скачать
1 | 0


>> Регистрируемся здесь <<






Отзывы и комментарии о схеме читаем и пишем здесь: ---> Отзывы и комментарии о схеме

Новые благодарочки в телеграм довольных пользователей:
скриншот   скриншот   скриншот   скриншот   скриншот
    Дорогой пользователь! Огромная просьба, поблагодарите релизера, оцените раздачу и оставьте свои комментарий, если Вы скачали Дуэль через торрент бесплатно! Внесите свою лепту в развитие PiratBit!
    Комментировать посты могут только пользователи прошедшие не сложную регистрацию
    Показать сообщения:    

    Дуэль через торрент
    Скачать бесплатно Дуэль
    Дуэль скачать торрент
    Дуэль смотреть онлайн
    Cкачать фильм Дуэль бесплатно
    Дуэль скачать торрент в хорошем качестве
    Дуэль смотреть онлайн бесплатно в хорошем качестве


    Вы не можете начинать темы
    Вы не можете отвечать на сообщения
    Вы не можете редактировать свои сообщения
    Вы не можете удалять свои сообщения
    Вы не можете голосовать в опросах
    Вы не можете прикреплять файлы к сообщениям
    Вы можете скачивать файлы