Ссылка на приватное зеркало нашего сайта всего за 1$. Внимание количество ограничено!!!

2 сезон

iTunes

1 сезон

1

iTunes

iTunes

iTunes

1 сезон

RePack

30

ИГРА 18+

pack

ВАЖНО

!!Акция!!

Alien_RageХит недели

RePack

MK11
pack

Забери бонус

RePack

jed

!!Акция!!

Alien_Rage

RePack

fifa19

RePack

Assassins Creed: Odyssey

RePack

NEED FOR SPEED™ PAYBACK

4 сезон

9 сезон

Бесстыжие 9 сезон

Все сериалы

все сериалы на PB.wtf

RePack

FAR CRY 5
  

Родные люди / Серии: 1-8 из 8 (Алексей Царев (II) [2018, Мелодрама, SATRip] pb.wtf

Родные люди через торрент pb.wtf

Размер: 5.36 GB | Добавлен: 2 года 1 мес. назад | Торрент скачан:23 раза
Скачать  

16-09-2018 11:45 Родные люди Скачать торрент  

Родные люди
Год выпуска: 2018
Страна: Россия
Жанр: Мелодрама
Продолжительность: ~ 00:51:00
Субтитры: отсутствуют

Режиссер: Алексей Царев (II)



В ролях:

Ирина Розанова, Андрей Ильин, Мария Машкова, Варвара Бородина, Игнат Акрачков, Семён Шкаликов, Артём Ткаченко, Наталия Вдовина, Александр Андриенко, Андрей Феськов, Михаил Стародубов, Татьяна Орлова, Владимир Антоник, Ольга Дибцева, Илья Бледный, Сергей Холмогоров, Александр Водопьянов, Андрей Забара, Анна Потебня, Дарья Петриченко

Описание:

Галина, сильная женщина, капитан огромного морского судна, мать двух взрослых дочерей. Бурные девяностые годы поломали немало людских судеб. Развели они по разным жизненным дорогам и Галину с Сергеем. Некогда любившие друг друга родные люди, разлетелись по разным частям света. Галине пришлось одной поднимать на ноги и растить двух замечательных дочек. Теперь, спустя годы, у нее есть не совсем женская, но любимая работа, есть ее нежно любимые девочки - Рита, младшая Светка и внучка Танюха. Спустя долгие годы, благодаря стечению обстоятельств, Сергей Александрович находит свою семью в Москве. Как цветные стекляшки старого калейдоскопа стремятся сложиться в красивую картинку, так близкие друг другу люди, в жизненной круговерти, тянутся друг к другу и непременно находят душевное равновесие, оказавшись в кругу своих родных.

Качество: SATRip
Формат: AVI

Видео: XviD, ~ 1650 Кбит/с, 720x400
Аудио: MP3, 2 ch, 192 Кбит/с
скриншот  скриншот  скриншот  скриншот  

Общее
Полное имя : D:\Rodnye.lyudi.XviD.SATRip.25Kuzmich\Rodnye.lyudi.e01.XviD.SATRip.25Kuzmich.avi
Формат : AVI
Формат/Информация : Audio Video Interleave
Размер файла : 675 Мбайт
Продолжительность : 50 м. 59 с.
Общий поток : 1851 Кбит/сек
Программа кодирования : VirtualDubMod 1.5.10.3 | www.virtualdub-fr.org || (build 2550/release)
Библиотека кодирования : VirtualDubMod build 2550/release

Видео
Идентификатор : 0
Формат : MPEG-4 Visual
Профиль формата : Advanced Simple@L5
Параметр BVOP формата : 1
Параметр QPel формата : Нет
Параметр GMC формата : Без точки перехода
Параметр матрицы формата : Default (MPEG)
Идентификатор кодека : XVID
Идентификатор кодека/Подсказка : XviD
Продолжительность : 50 м. 59 с.
Битрейт : 1650 Кбит/сек
Ширина : 720 пикселей
Высота : 400 пикселей
Соотношение сторон : 16:9
Частота кадров : 25,000 кадров/сек
Цветовое пространство : YUV
Субдискретизация насыщенности : 4:2:0
Битовая глубина : 8 бит
Тип развёртки : Прогрессивная
Метод сжатия : С потерями
Бит/(Пиксели*Кадры) : 0.229
Размер потока : 602 Мбайт (89%)
Библиотека кодирования : XviD 1.2.1 (UTC 2008-12-04)

Аудио
Идентификатор : 1
Формат : MPEG Audio
Версия формата : Version 1
Профиль формата : Layer 3
Режим : Joint stereo
Расширение режима : MS Stereo
Идентификатор кодека : 55
Идентификатор кодека/Подсказка : MP3
Продолжительность : 50 м. 59 с.
Вид битрейта : Постоянный
Битрейт : 192 Кбит/сек
Каналы : 2 канала
Частота : 48,0 КГц
Метод сжатия : С потерями
Размер потока : 70,0 Мбайт (10%)
Выравнивание : Соединение по промежуткам
Продолжительность промежутка : 40 мс. (1,00 видеокадр)
Время предзагрузки промежутка : 504 мс.
Библиотека кодирования : LAME3.99r
Настройки программы : -m j -V 4 -q 2 -lowpass 18.6 -b 192

pb.wtf



Скачать Родные люди через торрент http://i103.fastpic.ru/big/2018/0908/44/27db219c20aea71df822414e0459e044.jpg Скачать фильм Родные люди через торрент бесплантно в хорошем качестве Описание: Галина, сильная женщина, капитан огромного морского судна, мать двух взрослых дочерей. Бурные девяностые годы поломали немало ... 10 10 3
Торрент: Зарегистрирован [2018-09-16 11:45] · скачан: 23 раз
Статус: √ проверено
Размер: 5.36 GB
Как cкачать? Как скачать Родные люди через торрент | qTorrent

% Раздел Тема Автор DL S | L
Наши сериалы [ 10.67 GB ] Родные люди / Серии: 1-8 из 8 [2018 Мело HDTVRip 720p] bober100 Скачать
1 | 0
Наши сериалы [ 5.75 GB ] Родные люди / Серии: 1-8 из 8 [2018 Мело HDTVRip] bober100 Скачать
1 | 0
Наши сериалы [ 17.82 GB ] Родные люди / Серии: 1-8 из 8 [2018 Мело HDTV 1080i] bober100 Скачать
1 | 0
Наши сериалы [ 5.5 GB ] Родные люди / Серии: 1-8 из 8 [2018SATRip-AVC] aleksan55 Скачать
1 | 0

28-11-2019 20:33  

Отключить всю рекламу на сайте

    Дорогой пользователь! Огромная просьба, поблагодарите релизера, оцените раздачу и оставьте свои комментарий, если Вы скачали Родные люди через торрент бесплатно! Внесите свою лепту в развитие PiratBit!
    Комментировать посты могут только пользователи прошедшие не сложную регистрацию
    Показать сообщения:    

    Родные люди через торрент
    Скачать бесплатно Родные люди
    Родные люди скачать торрент
    Родные люди смотреть онлайн
    Cкачать фильм Родные люди бесплатно
    Родные люди скачать торрент в хорошем качестве
    Родные люди смотреть онлайн бесплатно в хорошем качестве


    Вы не можете начинать темы
    Вы не можете отвечать на сообщения
    Вы не можете редактировать свои сообщения
    Вы не можете удалять свои сообщения
    Вы не можете голосовать в опросах
    Вы не можете прикреплять файлы к сообщениям
    Вы можете скачивать файлы