Ссылка на приватное зеркало нашего сайта всего за 1$. Внимание количество ограничено!!!

2 сезон

iTunes

1 сезон

1

iTunes

iTunes

iTunes

1 сезон

RePack

30

ИГРА 18+

pack

ВАЖНО

!!Акция!!

Alien_RageХит недели

RePack

MK11
pack

Забери бонус

RePack

jed

!!Акция!!

Alien_Rage

RePack

fifa19

RePack

Assassins Creed: Odyssey

RePack

NEED FOR SPEED™ PAYBACK

4 сезон

9 сезон

Бесстыжие 9 сезон

Все сериалы

все сериалы на PB.wtf

RePack

FAR CRY 5
  

Родные люди / Серии: 1-8 из 8 (Алексей Царев (II) [2018, Мелодрама, HDTV 1080i] pb.wtf

Родные люди через торрент pb.wtf

Размер: 17.82 GB | Добавлен: 2 года 1 мес. назад | Торрент скачан:9 раз
Скачать  

16-09-2018 11:56 Родные люди Скачать торрент  

Родные люди
Год выпуска: 2018
Страна: Россия
Жанр: Мелодрама
Продолжительность: ~ 00:51:00
Субтитры: отсутствуют

Режиссер: Алексей Царев (II)



В ролях:

Ирина Розанова, Андрей Ильин, Мария Машкова, Варвара Бородина, Игнат Акрачков, Семён Шкаликов, Артём Ткаченко, Наталия Вдовина, Александр Андриенко, Андрей Феськов, Михаил Стародубов, Татьяна Орлова, Владимир Антоник, Ольга Дибцева, Илья Бледный, Сергей Холмогоров, Александр Водопьянов, Андрей Забара, Анна Потебня, Дарья Петриченко

Описание:

Галина, сильная женщина, капитан огромного морского судна, мать двух взрослых дочерей. Бурные девяностые годы поломали немало людских судеб. Развели они по разным жизненным дорогам и Галину с Сергеем. Некогда любившие друг друга родные люди, разлетелись по разным частям света. Галине пришлось одной поднимать на ноги и растить двух замечательных дочек. Теперь, спустя годы, у нее есть не совсем женская, но любимая работа, есть ее нежно любимые девочки - Рита, младшая Светка и внучка Танюха. Спустя долгие годы, благодаря стечению обстоятельств, Сергей Александрович находит свою семью в Москве. Как цветные стекляшки старого калейдоскопа стремятся сложиться в красивую картинку, так близкие друг другу люди, в жизненной круговерти, тянутся друг к другу и непременно находят душевное равновесие, оказавшись в кругу своих родных.

Качество: HDTV 1080i
Формат: MPEG-TS

Видео: AVC, ~ 5600 Кбит/с, 1920x1080
Аудио#1: Русский (AC3, 6 ch, 384 Кбит/с)
Аудио#2: Русский (MP2, 2 ch, 192 Кбит/с)
скриншот  скриншот  скриншот  скриншот  

Общее
Идентификатор : 1 (0x1)
Полное имя : D:\Rodnye ljudi.HDTV(1080i).GeneralFilm\01.Rodnye ljudi.HDTV(1080i).GeneralFilm.ts
Формат : MPEG-TS
Размер файла : 2,27 Гбайт
Продолжительность : 50 м. 58 с.
Режим общего битрейта : Переменный
Общий поток : 6383 Кбит/сек

Видео
Идентификатор : 2931 (0xB73)
Идентификатор меню : 1079 (0x437)
Формат : AVC
Формат/Информация : Advanced Video Codec
Профиль формата : High@L4
Параметр CABAC формата : Да
Параметр RefFrames формата : 4 кадра
Идентификатор кодека : 27
Продолжительность : 50 м. 58 с.
Битрейт : 5486 Кбит/сек
Ширина : 1920 пикселей
Высота : 1080 пикселей
Соотношение сторон : 16:9
Частота кадров : 25,000 кадров/сек
Цветовое пространство : YUV
Субдискретизация насыщенности : 4:2:0
Битовая глубина : 8 бит
Тип развёртки : MBAFF
Метод сохранения типа развёртки : Чередующиеся поля
Порядок развёртки : Верхнее поле первое
Бит/(Пиксели*Кадры) : 0.106
Размер потока : 1,95 Гбайт (86%)

Аудио #1
Идентификатор : 2904 (0xB58)
Идентификатор меню : 1079 (0x437)
Формат : AC-3
Формат/Информация : Audio Coding 3
Расширение режима : CM (complete main)
Параметр Endianness формата : Big
Идентификатор кодека : 6
Продолжительность : 50 м. 58 с.
Вид битрейта : Постоянный
Битрейт : 384 Кбит/сек
Каналы : 6 каналов
Расположение каналов : Front: L C R, Side: L R, LFE
Частота : 48,0 КГц
Частота кадров : 31,250 кадров/сек (1536 spf)
Метод сжатия : С потерями
Задержка видео : -40 мс.
Размер потока : 140 Мбайт (6%)
Язык : Russian

Аудио #2
Идентификатор : 2905 (0xB59)
Идентификатор меню : 1079 (0x437)
Формат : MPEG Audio
Версия формата : Version 1
Профиль формата : Layer 2
Идентификатор кодека : 3
Продолжительность : 50 м. 58 с.
Вид битрейта : Постоянный
Битрейт : 192 Кбит/сек
Каналы : 2 канала
Частота : 48,0 КГц
Метод сжатия : С потерями
Задержка видео : -40 мс.
Размер потока : 70,0 Мбайт (3%)
Язык : Russian

pb.wtf



Скачать Родные люди через торрент http://i103.fastpic.ru/big/2018/0908/44/27db219c20aea71df822414e0459e044.jpg Скачать фильм Родные люди через торрент бесплантно в хорошем качестве Описание: Галина, сильная женщина, капитан огромного морского судна, мать двух взрослых дочерей. Бурные девяностые годы поломали немало ... 10 10 2
Info! Золотая раздача, скачанное не засчитывается.
Торрент: Зарегистрирован [2018-09-16 11:56] · скачан: 9 раз
Статус: √ проверено
Размер: 17.82 GB
Как cкачать? Как скачать Родные люди через торрент | qTorrent

% Раздел Тема Автор DL S | L
Наши сериалы [ 10.67 GB ] Родные люди / Серии: 1-8 из 8 [2018 Мело HDTVRip 720p] bober100 Скачать
1 | 0
Наши сериалы [ 5.75 GB ] Родные люди / Серии: 1-8 из 8 [2018 Мело HDTVRip] bober100 Скачать
1 | 0
Наши сериалы [ 5.36 GB ] Родные люди / Серии: 1-8 из 8 [2018 Мело SATRip] bober100 Скачать
1 | 0
Наши сериалы [ 5.5 GB ] Родные люди / Серии: 1-8 из 8 [2018SATRip-AVC] aleksan55 Скачать
1 | 0

28-11-2019 20:33  

Отключить всю рекламу на сайте

    Дорогой пользователь! Огромная просьба, поблагодарите релизера, оцените раздачу и оставьте свои комментарий, если Вы скачали Родные люди через торрент бесплатно! Внесите свою лепту в развитие PiratBit!
    Комментировать посты могут только пользователи прошедшие не сложную регистрацию
    Показать сообщения:    

    Родные люди через торрент
    Скачать бесплатно Родные люди
    Родные люди скачать торрент
    Родные люди смотреть онлайн
    Cкачать фильм Родные люди бесплатно
    Родные люди скачать торрент в хорошем качестве
    Родные люди смотреть онлайн бесплатно в хорошем качестве


    Вы не можете начинать темы
    Вы не можете отвечать на сообщения
    Вы не можете редактировать свои сообщения
    Вы не можете удалять свои сообщения
    Вы не можете голосовать в опросах
    Вы не можете прикреплять файлы к сообщениям
    Вы можете скачивать файлы