новый адрес
Ссылка на приватное зеркало всего за 1$. Внимание количество ограничено!!!

iTunes

1+1

iTunes

мы

WEB-DL

1

iTunes

Чернобыль

iTunes

Ральф против интернета

Лицензия

ПШазам

Лицензия

Оно 2

Лицензия

30
pack

Вам бонус

ВАЖНО

!!Акция!!

Alien_RageХит недели

RePack

Resident Evil 21

ИГРА 18+

pack

RePack

jed

!!Акция!!

Alien_Rage

RePack

fifa19

RePack

Assassins Creed: Odyssey

RePack

NEED FOR SPEED™ PAYBACK

3 сезон

9 сезон

Бесстыжие 9 сезон

Все сериалы

все сериалы на PB.wtf

RePack

FAR CRY 5
Ребята, катастрофически не хватает 1900р. для оплаты серверов за Октябрь (всвязи с блокировками трафик упал в 3 раза), 1-2р., выручайте.
  

Хан Соло: Звёздные Войны. Истории / Solo: A Star Wars Story (Рон Ховард) [2018, фантастика, фэнтези, боевик, приключения, BDRip-AVC] [Локализованная версия] DUB [Лицензия] pb.wtf

Хан Соло: Звёздные Войны. Истории через торрент pb.wtf

Размер: 2.74 GB | Добавлен: 1 год 2 мес. назад | Торрент скачан:225 раз
Скачать  

16-09-2018 13:57 Хан Соло: Звёздные Войны. Истории Скачать торрент  

Хан Соло: Звёздные Войны. Истории / Solo: A Star Wars Story
Год выпуска: 2018
Страна: США
Жанр: фантастика, фэнтези, боевик, приключения
Продолжительность: 02:14:46
Перевод: Дублированный | Лицензия
Субтитры: Русские (форс., полные), Английские (полные, SDH)

Режиссер: Рон Ховард

rating

В ролях:

Олден Эренрайк (Han Solo), Йонас Суотамо (Chewbacca), Вуди Харрельсон (Beckett), Эмилия Кларк (Qi'ra), Дональд Гловер (Lando Calrissian), Тэнди Ньютон (Val), Фиби Уоллер-Бридж (L3-37), Пол Беттани (Dryden Vos), Джон Фавро (Rio Durant, озвучка), Эрин Келлиман (Enfys Nest), Линда Хант (Lady Proxima, озвучка), Йен Кенни (Rebolt)
Описание:

Фильм расскажет о похождениях юного космического сорвиголовы Хана Соло и его верного напарника Чубакки и о том, как они стали самыми быстрыми пилотами и самыми хитрыми контрабандистами далёкой Галактики.

Качество: BDRip-AVC | Локализованная версия
Формат: MKV

Видео: 1024x428 (2.40:1), 23,976 fps, x264 ~2 011 kbps avg, 0.191 bit/pixel
Аудио#1: 48 kHz, AC3 Dolby Digital, 3/2 (L,C,R,l,r) + LFE ch, ~448.00 kbps avg | RUS (Лицензия)
Аудио#2: 48 kHz, AC3 Dolby Digital, 3/2 (L,C,R,l,r) + LFE ch, ~448.00 kbps avg | ENG
скриншот  скриншот  скриншот  скриншот  

Общее
Уникальный идентификатор : 301582469049944350423123625898775539150 (0xE2E2ABB889537A5D86F3C116E289EDCE)
Полное имя : F:\OlLanDGroup\Solo.A.Star.Wars.Story.2018.BDRip(AVC).OlLanDGroup.mkv
Формат : Matroska
Версия формата : Version 4 / Version 2
Размер файла : 2,74 Гбайт
Продолжительность : 2 ч. 14 м.
Общий поток : 2908 Кбит/сек
Название фильма : Solo.A.Star.Wars.Story.2018 #TorpedoUK#
Дата кодирования : UTC 2018-09-16 13:14:18
Программа кодирования : mkvmerge v25.0.0 ('Prog Noir') 64-bit
Библиотека кодирования : libebml v1.3.6 + libmatroska v1.4.9
Обложка : Yes
Attachments : cover_land.jpg / small_cover.jpg / small_cover_land.jpg / cover.jpg

Видео
Идентификатор : 1
Формат : AVC
Формат/Информация : Advanced Video Codec
Профиль формата : High@L4.1
Параметр CABAC формата : Да
Параметр ReFrames формата : 10 кадров
Идентификатор кодека : V_MPEG4/ISO/AVC
Продолжительность : 2 ч. 14 м.
Битрейт : 2011 Кбит/сек
Ширина : 1024 пикселя
Высота : 428 пикселей
Соотношение сторон : 2,40:1
Режим частоты кадров : Постоянный
Частота кадров : 23,976 (24000/1001) кадра/сек
Цветовое пространство : YUV
Субдискретизация насыщенности : 4:2:0
Битовая глубина : 8 бит
Тип развёртки : Прогрессивная
Бит/(Пиксели*Кадры) : 0.191
Размер потока : 1,89 Гбайт (69%)
Библиотека кодирования : x264 core 146 r2538 121396c
Настройки программы : cabac=1 / ref=10 / deblock=1:-3:-3 / analyse=0x3:0x113 / me=umh / subme=11 / psy=1 / psy_rd=1.00:0.03 / mixed_ref=1 / me_range=48 / chroma_me=1 / trellis=2 / 8x8dct=1 / cqm=0 / deadzone=21,11 / fast_pskip=1 / chroma_qp_offset=-3 / threads=6 / lookahead_threads=1 / sliced_threads=0 / nr=0 / decimate=1 / interlaced=0 / bluray_compat=0 / constrained_intra=0 / bframes=10 / b_pyramid=2 / b_adapt=2 / b_bias=0 / direct=3 / weightb=1 / open_gop=0 / weightp=2 / keyint=240 / keyint_min=23 / scenecut=40 / intra_refresh=0 / rc_lookahead=40 / rc=2pass / mbtree=0 / bitrate=2011 / ratetol=1.0 / qcomp=0.60 / qpmin=0 / qpmax=69 / qpstep=4 / cplxblur=20.0 / qblur=0.5 / vbv_maxrate=50000 / vbv_bufsize=62500 / nal_hrd=none / filler=0 / ip_ratio=1.40 / pb_ratio=1.30 / aq=1:1.00
Язык : English
Default : Да
Forced : Нет

Аудио #1
Идентификатор : 2
Формат : AC-3
Формат/Информация : Audio Coding 3
Расширение режима : CM (complete main)
Параметр Endianness формата : Big
Идентификатор кодека : A_AC3
Продолжительность : 2 ч. 14 м.
Вид битрейта : Постоянный
Битрейт : 448 Кбит/сек
Каналы : 6 каналов
Расположение каналов : Front: L C R, Side: L R, LFE
Частота : 48,0 КГц
Частота кадров : 31,250 кадров/сек (1536 spf)
Битовая глубина : 16 бит
Метод сжатия : С потерями
Размер потока : 432 Мбайт (15%)
Заголовок : [License]
Язык : Russian
Default : Да
Forced : Нет

Аудио #2
Идентификатор : 3
Формат : AC-3
Формат/Информация : Audio Coding 3
Расширение режима : CM (complete main)
Параметр Endianness формата : Big
Идентификатор кодека : A_AC3
Продолжительность : 2 ч. 14 м.
Вид битрейта : Постоянный
Битрейт : 448 Кбит/сек
Каналы : 6 каналов
Расположение каналов : Front: L C R, Side: L R, LFE
Частота : 48,0 КГц
Частота кадров : 31,250 кадров/сек (1536 spf)
Битовая глубина : 16 бит
Метод сжатия : С потерями
Размер потока : 432 Мбайт (15%)
Заголовок : [Original]
Язык : English
Default : Нет
Forced : Нет

Текст #1
Идентификатор : 4
Формат : UTF-8
Идентификатор кодека : S_TEXT/UTF8
Идентификатор кодека/Информация : UTF-8 Plain Text
Продолжительность : 1 ч. 20 м.
Битрейт : 2 бит/сек
Count of elements : 28
Размер потока : 1,24 Кбайт (0%)
Заголовок : Forced
Язык : Russian
Default : Да
Forced : Нет

Текст #2
Идентификатор : 5
Формат : UTF-8
Идентификатор кодека : S_TEXT/UTF8
Идентификатор кодека/Информация : UTF-8 Plain Text
Продолжительность : 2 ч. 6 м.
Битрейт : 83 бит/сек
Count of elements : 1829
Размер потока : 77,5 Кбайт (0%)
Заголовок : Full
Язык : Russian
Default : Нет
Forced : Нет

Текст #3
Идентификатор : 6
Формат : UTF-8
Идентификатор кодека : S_TEXT/UTF8
Идентификатор кодека/Информация : UTF-8 Plain Text
Продолжительность : 2 ч. 5 м.
Битрейт : 56 бит/сек
Count of elements : 1957
Размер потока : 51,9 Кбайт (0%)
Заголовок : Full
Язык : English
Default : Нет
Forced : Нет

Текст #4
Идентификатор : 7
Формат : UTF-8
Идентификатор кодека : S_TEXT/UTF8
Идентификатор кодека/Информация : UTF-8 Plain Text
Продолжительность : 2 ч. 5 м.
Битрейт : 63 бит/сек
Count of elements : 2232
Размер потока : 58,5 Кбайт (0%)
Заголовок : SDH
Язык : English
Default : Нет
Forced : Нет

Меню
00:00:00.000 : en:Opening Credits
00:00:53.845 : en:Streets of Corellia
00:02:10.213 : en:Qi'ra
00:03:53.150 : en:Den of The White Worms
00:06:00.485 : en:Corellian Speeder Chase
00:09:27.567 : en:Coronet Spaceport
00:13:16.045 : en:Recruitment
00:14:14.020 : en:Mimban Battlefield
00:16:12.263 : en:None-of-Your-Business Company
00:19:45.101 : en:The Beast
00:22:43.821 : en:Mimban Escape
00:24:37.267 : en:Vandor
00:27:00.035 : en:Camfire Stories
00:30:02.926 : en:Conveyex Heist
00:32:54.681 : en:Marauder Attack
00:39:09.764 : en:"You're in This Life For Good"
00:41:59.225 : en:The Yacht
00:43:20.181 : en:Dryden Vos
00:44:32.128 : en:Reunion
00:48:03.756 : en:Deal with Crimson Dawn
00:51:58.324 : en:The Lodge
00:53:17.528 : en:Full Sabacc
00:57:23.523 : en:Lando and L3
01:00:16.780 : en:Millennium Falcon
01:02:40.882 : en:"Buckle Up, Baby"
01:04:51.262 : en:"People Are Predictable"
01:05:29.509 : en:Han and Qi'ra
01:07:12.028 : en:"Trust No One"
01:08:05.915 : en:Not Cpmpatible
01:10:00.113 : en:Arrival on Kessel
01:12:44.193 : en:Into the Mines
01:14:40.851 : en:Revolt
01:18:30.873 : en:Kessel Shootout
01:23:15.741 : en:Into the Maelstrom
01:26:32.646 : en:Kessel Run
01:30:33.136 : en:Escaping the Maw
01:35:19.672 : en:Savareen
01:37:04.861 : en:The Good Guy
01:38:52.802 : en:Marauders Return
01:41:18.531 : en:Enfys Nest
01:43:02.676 : en:One Last Score
01:45:27.821 : en:The Delivery
01:46:32.177 : en:Explosive Stuff
01:49:45.996 : en:Double-Crossings
01:53:33.890 : en:Duel with Dryden
01:57:13.902 : en:Secret Leader
01:58:55.128 : en:Showdown
02:01:34.829 : en:Rebellion's Dawn
02:03:20.893 : en:Sabacc Rematch
02:06:09.353 : en:End Credits
02:14:30.000 : en:HDChina

pb.wtf



Скачать Хан Соло: Звёздные Войны. Истории через торрент http://i99.fastpic.ru/big/2018/0913/c6/fa395d05a8ff9cf0439939e9fc3a62c6.jpg Скачать фильм Хан Соло: Звёздные Войны. Истории через торрент бесплантно в хорошем качестве Описание: Фильм расскажет о похождениях юного космического сорвиголовы Хана Соло и его верного напарника Чубакки и о том, как они стали ... 9.9 10 9
Info! Золотая раздача, скачанное не засчитывается.
Торрент: Зарегистрирован [2018-09-16 13:57] · скачан: 225 раз
Статус: √ проверено
Размер: 2.74 GB
Как cкачать? Как скачать Хан Соло: Звёздные Войны. Истории через торрент | qTorrent

% Раздел Тема Автор DL S | L
3D Фильмы [ 14.57 GB ] Хан Соло: Звёздные войны. Истории в 3Д / Solo: A Star Wars Story 3D [2018 BDRip 1080p] OverUnder / Вертикальная стереопара serega768 Скачать
2 | 0
Фильмы с авторской озвучкой [ 2.06 GB ] Хан Соло: Звёздные Войны. Истории / Solo: A Star Wars Story [2018 BDRip] [AVO] killermax2013 Скачать
1 | 0
Фильмы (Blu-ray, BD-Remux, HDDVD) [ 39.08 GB ] Хан Соло: Звёздные Войны. Истории / Solo: A Star Wars Story [2018 Blu-ray 1080p] [2D 3D] DUB [] bober100 Скачать
1 | 0
Фильмы (Blu-ray, BD-Remux, HDDVD) [ 34.84 GB ] Хан Соло: Звёздные войны. Истории / Solo: A Star Wars Story [2018 BDRemux 1080p] [] Локализованная версия sheker187 Скачать
1 | 0
Фильмы [HD 720p, 1080p] (Хороший звук DUB, MVO) [ 7.29 GB ] Хан Соло: Звёздные Войны. Истории / Solo: A Star Wars Story [2018 BDRip-HEVC 1080p ] DUB [] bober100 Скачать
6 | 0
Фильмы 2018 [DVDrip, WEB-DLRip, HDrip] (DUB, MVO) [ 1.46 GB ] Хан Соло: Звёздные войны. Истории / Solo: A Star Wars Story [2018 BDRip] - [] Twi7ter Скачать
4 | 0
Фильмы 2018 [DVDrip, WEB-DLRip, HDrip] (DUB, MVO) [ 2.82 GB ] Хан Соло: Звёздные войны. Истории / Solo: A Star Wars Story [2018 HDRip-AVC] - [] - ExKinoRay Enigma2010 Скачать
1 | 0

28-11-2019 20:33  

Отключить всю рекламу на сайте

16-09-2018 17:58 Хан Соло: Звёздные Войны. Истории Скачать торрент  

и в чем заключается локализация? видеоряд не локализованpb.wtf



    Дорогой пользователь! Огромная просьба, поблагодарите релизера, оцените раздачу и оставьте свои комментарий, если Вы скачали Хан Соло: Звёздные Войны. Истории через торрент бесплатно! Внесите свою лепту в развитие PiratBit!
    Комментировать посты могут только пользователи прошедшие не сложную регистрацию
    Показать сообщения:    

    Хан Соло: Звёздные Войны. Истории через торрент
    Скачать бесплатно Хан Соло: Звёздные Войны. Истории
    Хан Соло: Звёздные Войны. Истории скачать торрент
    Хан Соло: Звёздные Войны. Истории смотреть онлайн
    Cкачать фильм Хан Соло: Звёздные Войны. Истории бесплатно
    Хан Соло: Звёздные Войны. Истории скачать торрент в хорошем качестве
    Хан Соло: Звёздные Войны. Истории смотреть онлайн бесплатно в хорошем качестве


    Вы не можете начинать темы
    Вы не можете отвечать на сообщения
    Вы не можете редактировать свои сообщения
    Вы не можете удалять свои сообщения
    Вы не можете голосовать в опросах
    Вы не можете прикреплять файлы к сообщениям
    Вы можете скачивать файлы