Ссылка на приватное зеркало нашего сайта всего за 1$. Внимание количество ограничено!!!

2 сезон

iTunes

1 сезон

1

iTunes

iTunes

iTunes

1 сезон

RePack

30

ИГРА 18+

pack

ВАЖНО

!!Акция!!

Alien_RageХит недели

RePack

MK11
pack

Забери бонус

RePack

jed

!!Акция!!

Alien_Rage

RePack

fifa19

RePack

Assassins Creed: Odyssey

RePack

NEED FOR SPEED™ PAYBACK

4 сезон

9 сезон

Бесстыжие 9 сезон

Все сериалы

все сериалы на PB.wtf

RePack

FAR CRY 5
  

Семейное дело / Серии: 1-4 из 4 (Илья Хотиненко) [2018, Мелодрама, WEB-DLRip] pb.wtf

Семейное дело через торрент pb.wtf

Размер: 2.29 GB | Добавлен: 2 года 1 мес. назад | Торрент скачан:41 раз
Скачать  

16-09-2018 14:24 Семейное дело Скачать торрент  

Семейное делоГод выпуска: 2018
Страна: Россия
Жанр: Мелодрама
Продолжительность: ~ 00:47:00
Субтитры: отсутствуют

Режиссер: Илья Хотиненко



В ролях:

Анна Каменкова, Борис Невзоров, Анна Миклош, Михаил Тарабукин, Анна Дулова, Павел Устинов, Алина Бабак

Описание:

На семейном ужине в честь юбилея свадьбы Люба сообщает, что они с Леонидом разводятся. Эта новость шокирует детей – уже взрослых, но привыкших укрываться от жизненных невзгод в родительском доме, ставшем для них нерушимой крепостью. Оставшись без опоры, дети пускаются во все тяжкие. Игорь, сев за руль пьяным после неудавшегося празднования, сбивает на дороге велосипедистку, которая оказывается невредимой, но ведёт себя очень странно… Случайно ли она оказалась у него на пути? Соня мечется между мужем и отцом её ребенка, пытаясь понять, кого из них она любит. Егор балансирует на грани служебного романа. Ваня ссорится с невестой. Каждый из них переживает кризис, и это отвлекает их от родителей, которые скрывают от них главную причину разрыва…

Качество: WEB-DLRip
Формат: AVI

Видео: XviD, ~ 1500 Кбит/с, 720x400
Аудио: AC3, 2 ch, 192 Кбит/с
скриншот  скриншот  скриншот  скриншот  

Общее
Полное имя : D:\Семейное дело (2018). WEB-DLRip.Files-x\1.Семейное дело (2018). WEB-DLRip.Files-x.avi
Формат : AVI
Формат/Информация : Audio Video Interleave
Размер файла : 550 Мбайт
Продолжительность : 45 м. 28 с.
Общий поток : 1692 Кбит/сек
Программа кодирования : VirtualDubMod 1.5.10.3 | www.virtualdub-fr.org || (build 2550/release)
Библиотека кодирования : VirtualDubMod build 2550/release

Видео
Идентификатор : 0
Формат : MPEG-4 Visual
Профиль формата : Advanced Simple@L5
Параметр BVOP формата : 1
Параметр QPel формата : Нет
Параметр GMC формата : Без точки перехода
Параметр матрицы формата : Выборочная
Идентификатор кодека : XVID
Идентификатор кодека/Подсказка : XviD
Продолжительность : 45 м. 28 с.
Битрейт : 1490 Кбит/сек
Ширина : 720 пикселей
Высота : 400 пикселей
Соотношение сторон : 16:9
Частота кадров : 25,000 кадров/сек
Цветовое пространство : YUV
Субдискретизация насыщенности : 4:2:0
Битовая глубина : 8 бит
Тип развёртки : Прогрессивная
Метод сжатия : С потерями
Бит/(Пиксели*Кадры) : 0.207
Размер потока : 485 Мбайт (88%)
Библиотека кодирования : XviD 73

Аудио
Идентификатор : 1
Формат : AC-3
Формат/Информация : Audio Coding 3
Расширение режима : CM (complete main)
Параметр Endianness формата : Big
Идентификатор кодека : 2000
Продолжительность : 45 м. 28 с.
Вид битрейта : Постоянный
Битрейт : 192 Кбит/сек
Каналы : 2 канала
Расположение каналов : Front: L R
Частота : 48,0 КГц
Частота кадров : 31,250 кадров/сек (1536 spf)
Метод сжатия : С потерями
Размер потока : 62,4 Мбайт (11%)
Выравнивание : Разделение по промежуткам
Продолжительность промежутка : 40 мс. (1,00 видеокадр)
Время предзагрузки промежутка : 500 мс.

pb.wtf



Скачать Семейное дело через торрент https://d.radikal.ru/d08/1809/5e/3bf56eae26ce.jpg Скачать фильм Семейное дело через торрент бесплантно в хорошем качестве Описание: На семейном ужине в честь юбилея свадьбы Люба сообщает, что они с Леонидом разводятся. Эта новость шокирует детей – уже взрослых, ... 10 10 2
Торрент: Зарегистрирован [2018-09-16 14:24] · скачан: 41 раз
Статус: √ проверено
Размер: 2.29 GB
Как cкачать? Как скачать Семейное дело через торрент | qTorrent

% Раздел Тема Автор DL S | L
Наши сериалы [ 2.58 GB ] Семейное дело / Серии: 1-4 из 4 [2018 Мело SATRip] bober100 Скачать
1 | 0
Наши сериалы [ 2.52 GB ] Семейное дело / Серии: 1-4 из 4 [2018SATRip-AVC] aleksan55 Скачать
1 | 0

28-11-2019 20:33  

Отключить всю рекламу на сайте

    Дорогой пользователь! Огромная просьба, поблагодарите релизера, оцените раздачу и оставьте свои комментарий, если Вы скачали Семейное дело через торрент бесплатно! Внесите свою лепту в развитие PiratBit!
    Комментировать посты могут только пользователи прошедшие не сложную регистрацию
    Показать сообщения:    

    Семейное дело через торрент
    Скачать бесплатно Семейное дело
    Семейное дело скачать торрент
    Семейное дело смотреть онлайн
    Cкачать фильм Семейное дело бесплатно
    Семейное дело скачать торрент в хорошем качестве
    Семейное дело смотреть онлайн бесплатно в хорошем качестве


    Вы не можете начинать темы
    Вы не можете отвечать на сообщения
    Вы не можете редактировать свои сообщения
    Вы не можете удалять свои сообщения
    Вы не можете голосовать в опросах
    Вы не можете прикреплять файлы к сообщениям
    Вы можете скачивать файлы