Ссылка на приватное зеркало нашего сайта всего за 1$. Внимание количество ограничено!!!

2 сезон

iTunes

1 сезон

1

2 сезон

2 сезон

iTunes

1 сезон

RePack

30

Новинка

ВАЖНО

ИГРА 18+

pack

RePack

MK11
pack

Забери бонус

RePack

jed

!!Акция!!

Alien_Rage

RePack

fifa19

RePack

Assassins Creed: Odyssey

RePack

NEED FOR SPEED™ PAYBACK

4 сезон

9 сезон

Бесстыжие 9 сезон

Все сериалы

все сериалы на PB.wtf

RePack

FAR CRY 5
  

Большой куш / Snatch / Сезон: 2 / Серии: 1-10 из 10 (Лоуренс Гоф, Николас Рентон, Джеффри Сакс) [2018, Комедия, криминал, WEBRip] [DVO] (HamsterStudio) pb.wtf

Большой куш через торрент pb.wtf

Размер: 3.91 GB | Добавлен: 2 года 2 мес. назад | Торрент скачан:57 раз
Скачать  

16-09-2018 16:29 Большой куш Скачать торрент  

Большой кушSnatch

Год выпуска: 2018
Страна: США, Великобритания
Жанр: Комедия, криминал
Продолжительность: 10x ~00:45:00
Перевод: Любительский (двухголосый закадровый) HamsterStudio
Субтитры: отсутствуют

Режиссёр: Лоуренс Гоф, Николас Рентон, Джеффри Сакс

В ролях: Руперт Гринт, Люсьен Лависконт, Люк Паскуалино, Дугрей Скотт, Эд Вествик, Расс Бэйн, Клер Купер, Фиби Дайневор, Джо Херст и др.

Описание: Сюжет сосредоточится на группе молодых предприимчивых жуликов, наткнувшихся на грузовик, полный награбленного золота. Так герои оказываются втянутыми в мир элиты организованной преступности, где им придется на ходу учиться выживать, сталкиваясь с гангстерами, коррумпированными копами и боксерами-цыганами.



Качество: WEBRip
Формат: AVI
Видео: XviD, 720x400 (16:9), 23,976 fps, ~1100 kbps
Аудио: MP3, 48 kHz, 2 ch, 128 kbps
General
Complete name : E:\Snatch (Season 02) HamsterStudio\Snatch.S02E01.WEBRip.HamsterStudio.Org.avi
Format : AVI
Format/Info : Audio Video Interleave
File size : 382 MiB
Duration : 44 min 2 s
Overall bit rate : 1 214 kb/s
Writing application : VirtualDubMod 1.5.10.2 (build 2540/release)
Writing library : VirtualDubMod build 2540/release

Video
ID : 0
Format : MPEG-4 Visual
Format profile : Advanced Simple@L5
Format settings : BVOP2
Format settings, BVOP : 2
Format settings, QPel : No
Format settings, GMC : No warppoints
Format settings, Matrix : Default (H.263)
Muxing mode : Packed bitstream
Codec ID : XVID
Codec ID/Hint : XviD
Duration : 44 min 2 s
Bit rate : 1 029 kb/s
Width : 720 pixels
Height : 400 pixels
Display aspect ratio : 16:9
Frame rate : 23.976 (24000/1001) FPS
Color space : YUV
Chroma subsampling : 4:2:0
Bit depth : 8 bits
Scan type : Progressive
Compression mode : Lossy
Bits/(Pixel*Frame) : 0.149
Stream size : 324 MiB (85%)
Writing library : XviD 66

Audio
ID : 1
Format : MPEG Audio
Format version : Version 1
Format profile : Layer 3
Format settings : Joint stereo / MS Stereo
Mode : Joint stereo
Mode extension : MS Stereo
Codec ID : 55
Codec ID/Hint : MP3
Duration : 44 min 2 s
Bit rate mode : Constant
Bit rate : 128 kb/s
Channel(s) : 2 channels
Sampling rate : 48.0 kHz
Compression mode : Lossy
Stream size : 40.3 MiB (11%)
Alignment : Aligned on interleaves
скриншот  скриншот  скриншот  
pb.wtf



Скачать Большой куш через торрент http://i91.fastpic.ru/big/2017/0317/c8/614d9e33ec8096f7025ed3f83bb285c8.png Скачать фильм Большой куш через торрент бесплантно в хорошем качестве Описание: Сюжет сосредоточится на группе молодых предприимчивых жуликов, наткнувшихся на грузовик, полный награбленного золота. Так герои ... 10 10 2
Торрент: Зарегистрирован [2018-09-16 16:29] · скачан: 57 раз
Статус: √ проверено
Размер: 3.91 GB
Как cкачать? Как скачать Большой куш через торрент | qTorrent

% Раздел Тема Автор DL S | L
Зарубежные сериалы [ 550 MB ] Большой куш / Snatch / Сезон: 2 / Серии: 1 из 10 [2018 WEBRip] [MVO] killermax2013 Скачать
1 | 0
Зарубежные сериалы [ 7.52 GB ] Большой куш / Snatch / Сезон: 2 / Серии: 1-10 из 10 [2018 WEBRip 720p] MVO [Jaskier] bober100 Скачать
1 | 0
Зарубежные сериалы [ 4.89 GB ] Большой куш / Snatch / Сезон: 2 / Серии: 1-10 из 10 [2018 WEBRip] MVO [Jaskier] bober100 Скачать
1 | 0
Зарубежные сериалы [ 12.43 GB ] Большой куш / Snatch / Сезон: 2 / Серии: 1-10 из 10 [2018 WEBRip 1080p] MVO [Jaskier] bober100 Скачать
1 | 0
Зарубежные сериалы [ 22.29 GB ] Большой куш / Snatch / Сезон: 2 / Серии: 1-10 из 10 [2018 WEB-DL 1080p] [MVO] killermax2013 Скачать
1 | 0
Зарубежные сериалы [ 5.88 GB ] Большой куш / Snatch / Сезон: 2 / Серии: 1-10 из 10 [2018 WEBRip] MVO [LostFilm] bober100 Скачать
1 | 0
Зарубежные сериалы [ 11.19 GB ] Большой куш / Snatch / Сезон: 2 / Серии: 1-10 из 10 [2018 WEBRip 720p] MVO [ColdFilm] bober100 Скачать
1 | 0

28-11-2019 20:33  

Отключить всю рекламу на сайте

18-09-2018 19:59 Большой куш Скачать торрент  

Автор лол, не указал что есть реклама. не качайте эту раздачу, реклама присутствует и так задалбливает.
В самом начале, потом потом снова и через 10 минут снова и я выключил, хорошо что скачал только первую серию.pb.wtf



    Дорогой пользователь! Огромная просьба, поблагодарите релизера, оцените раздачу и оставьте свои комментарий, если Вы скачали Большой куш через торрент бесплатно! Внесите свою лепту в развитие PiratBit!
    Комментировать посты могут только пользователи прошедшие не сложную регистрацию
    Показать сообщения:    

    Большой куш через торрент
    Скачать бесплатно Большой куш
    Большой куш скачать торрент
    Большой куш смотреть онлайн
    Cкачать фильм Большой куш бесплатно
    Большой куш скачать торрент в хорошем качестве
    Большой куш смотреть онлайн бесплатно в хорошем качестве


    Вы не можете начинать темы
    Вы не можете отвечать на сообщения
    Вы не можете редактировать свои сообщения
    Вы не можете удалять свои сообщения
    Вы не можете голосовать в опросах
    Вы не можете прикреплять файлы к сообщениям
    Вы можете скачивать файлы