Ссылка на приватное зеркало всего за 1$. Внимание количество ограничено!!!

OK

1+1

iTunes

мы

OK

1

WEB-DLRip

Джокер

Пифагор

Ведьмак / The Witcher сериал

Лицензия

ПШазам

ОК

Оно 2

iTunes

30
pack

Вам бонус

ВАЖНО

!!Акция!!

Alien_RageХит недели

RePack

Resident Evil 21

ИГРА 18+

pack

RePack

jed

!!Акция!!

Alien_Rage

RePack

fifa19

RePack

Assassins Creed: Odyssey

RePack

NEED FOR SPEED™ PAYBACK

4 сезон

9 сезон

Бесстыжие 9 сезон

Все сериалы

все сериалы на PB.wtf

RePack

FAR CRY 5
  

Суперфлай / Superfly (Директор Икс.) [2018, боевик, триллер, криминал, BDRip 1080p] MVO [HDrezka Studio] pb.wtf

Суперфлай через торрент pb.wtf

Размер: 7.92 GB | Добавлен: 1 год 4 мес. назад | Торрент скачан:76 раз
Скачать  

16-09-2018 21:06 Суперфлай Скачать торрент  

Суперфлай / Superfly
Год выпуска: 2018
Страна: США
Жанр: боевик, триллер, криминал
Продолжительность: 01:56:10
Перевод: Профессиональный (многоголосый) | HDrezka Studio
Субтитры: Английские

Режиссер: Директор Икс.

rating

В ролях:

Тревор Джексон, Джейсон Митчелл, Майкл Кеннет Уильямс, Лекс Скотт Дэвис, Дженнифер Моррисон, Каалан Рашад Уокер, Эсай Моралес, Андреа Лондо, Биг Банк Блэк, Биг Бой

Описание:

Темнокожий наркодилер Янгблад Прист ждет не дождется, когда он сможет выйти из преступного бизнеса. Но для начала ему нужно заработать на честную жизнь, продав огромную партию кокаина. Список дел Приста пополняется разборками с полицейскими, разоблачением друга-предателя и устройством личной жизни с любимой девушкой Джорджией.

Качество: BDRip 1080p
Формат: MKV

Видео: MPEG-4 AVC, 8056 Кбит/с, 1920x1036, 23.976 Кадр/c
Аудио#1: Русский (AC3, 2 ch, 192 Кбит/с)
Аудио#2: английский (DTS, 6 ch, 1509 Кбит/c)
скриншот  скриншот  скриншот  скриншот  скриншот  

Общее
Уникальный идентификатор : 210783307296656250128533416410064356753 (0x9E93636997A12F53B35EC66EC1800591)
Полное имя : D:ЗагрузкиSuperFly.2018.x264.BDRip.(1080p).OlLanDGroup.mkv
Формат : Matroska
Версия формата : Version 4 / Version 2
Размер файла : 7,92 Гбайт
Продолжительность : 1 ч. 56 м.
Общий поток : 9760 Кбит/сек
Название фильма : Суперфлай.2018.Rip by: ollan
Дата кодирования : UTC 2018-09-14 19:00:04
Программа кодирования : mkvmerge v6.5.0 ('Isn't she lovely') built on Oct 20 2013 12:50:05
Библиотека кодирования : libebml v1.3.0 + libmatroska v1.4.1
Обложка : Yes
Attachments : Cover - Superfly.png

Видео
Идентификатор : 1
Формат : AVC
Формат/Информация : Advanced Video Codec
Профиль формата : High@L4.1
Настройки формата : CABAC / 4 Ref Frames
Параметр CABAC формата : Да
Параметр ReFrames формата : 4 кадра
Идентификатор кодека : V_MPEG4/ISO/AVC
Продолжительность : 1 ч. 56 м.
Битрейт : 8056 Кбит/сек
Ширина : 1920 пикселей
Высота : 1036 пикселей
Соотношение сторон : 1,85:1
Режим частоты кадров : Постоянный
Частота кадров : 23,976 (24000/1001) кадра/сек
Цветовое пространство : YUV
Субдискретизация насыщенности : 4:2:0
Битовая глубина : 8 бит
Тип развёртки : Прогрессивная
Бит/(Пиксели*Кадры) : 0.169
Размер потока : 6,38 Гбайт (81%)
Библиотека кодирования : x264 core 146 r2538 121396c
Настройки программы : cabac=1 / ref=4 / deblock=1:-2:-3 / analyse=0x3:0x133 / me=umh / subme=11 / psy=1 / psy_rd=0.90:0.05 / mixed_ref=1 / me_range=64 / chroma_me=1 / trellis=2 / 8x8dct=1 / cqm=0 / deadzone=21,11 / fast_pskip=0 / chroma_qp_offset=-3 / threads=12 / lookahead_threads=3 / sliced_threads=0 / nr=0 / decimate=0 / interlaced=0 / bluray_compat=0 / constrained_intra=0 / bframes=10 / b_pyramid=2 / b_adapt=2 / b_bias=0 / direct=3 / weightb=1 / open_gop=0 / weightp=2 / keyint=240 / keyint_min=23 / scenecut=40 / intra_refresh=0 / rc_lookahead=60 / rc=2pass / mbtree=1 / bitrate=8056 / ratetol=1.0 / qcomp=0.60 / qpmin=0 / qpmax=69 / qpstep=4 / cplxblur=20.0 / qblur=0.5 / vbv_maxrate=50000 / vbv_bufsize=62500 / nal_hrd=none / filler=0 / ip_ratio=1.40 / aq=1:1.00
Язык : English
Default : Да
Forced : Нет

Аудио #1
Идентификатор : 2
Формат : AC-3
Формат/Информация : Audio Coding 3
Идентификатор кодека : A_AC3
Продолжительность : 1 ч. 56 м.
Вид битрейта : Постоянный
Битрейт : 192 Кбит/сек
Каналы : 2 канала
Расположение каналов : Front: L R
Частота : 48,0 КГц
Частота кадров : 31,250 кадров/сек (1536 SPF)
Битовая глубина : 16 бит
Метод сжатия : С потерями
Размер потока : 160 Мбайт (2%)
Заголовок : Профессиональный многоголосый [HDRezka Studio]
Язык : Russian
Service kind : Complete Main
Default : Да
Forced : Нет

Аудио #2
Идентификатор : 3
Формат : DTS
Формат/Информация : Digital Theater Systems
Идентификатор кодека : A_DTS
Продолжительность : 1 ч. 56 м.
Вид битрейта : Постоянный
Битрейт : 1509 Кбит/сек
Каналы : 6 каналов
Расположение каналов : Front: L C R, Side: L R, LFE
Частота : 48,0 КГц
Частота кадров : 93,750 кадра/сек (512 SPF)
Битовая глубина : 16 бит
Метод сжатия : С потерями
Размер потока : 1,22 Гбайт (15%)
Язык : English
Default : Нет
Forced : Нет

Текст
Идентификатор : 4
Формат : UTF-8
Идентификатор кодека : S_TEXT/UTF8
Идентификатор кодека/Информация : UTF-8 Plain Text
Заголовок : Full
Язык : English
Default : Нет
Forced : Нет

Меню
00:00:00.000 : en:Chapter 01
00:05:54.145 : en:Chapter 02
00:14:24.321 : en:Chapter 03
00:21:11.603 : en:Chapter 04
00:28:39.926 : en:Chapter 05
00:35:25.915 : en:Chapter 06
00:40:37.518 : en:Chapter 07
00:47:54.121 : en:Chapter 08
00:54:24.511 : en:Chapter 09
01:00:06.227 : en:Chapter 10
01:08:10.628 : en:Chapter 11
01:16:01.348 : en:Chapter 12
01:22:30.487 : en:Chapter 13
01:32:03.559 : en:Chapter 14
01:38:19.852 : en:Chapter 15
01:47:35.449 : en:Chapter 16

pb.wtf



Скачать Суперфлай через торрент http://c.radikal.ru/c06/1809/6e/aae0d208e160.jpg Скачать фильм Суперфлай через торрент бесплантно в хорошем качестве Описание: Темнокожий наркодилер Янгблад Прист ждет не дождется, когда он сможет выйти из преступного бизнеса. Но для начала ему нужно ... 9.6 10 5
Торрент: Зарегистрирован [2018-09-16 21:06] · скачан: 76 раз
Статус: T временная
Размер: 7.92 GB
Как cкачать? Как скачать Суперфлай через торрент | qTorrent

% Раздел Тема Автор DL S | L
Фильмы (Blu-ray, BD-Remux, HDDVD) [ 33.5 GB ] Суперфлай / Superfly [2018 Blu-ray EUR 1080p] MVO [] bober100 Скачать
1 | 0
Фильмы (Blu-ray, BD-Remux, HDDVD) [ 22.5 GB ] Суперфлай / Superfly [2018 BD Remux 1080p] MVO [] bober100 Скачать
1 | 0
T Фильмы [HD 720p, 1080p] (Хороший звук DUB, MVO) [ 7.22 GB ] Суперфлай / Superfly [2018 BDRip 720p] MVO [HDrezka Studio] bober100 Скачать
1 | 0
Фильмы 2018 [DVDrip, WEB-DLRip, HDrip] (DUB, MVO) [ 2.18 GB ] Суперфлай / Superfly [2018 BDRip] MVO [] Twi7ter Скачать
3 | 0
Фильмы 2018 [DVDrip, WEB-DLRip, HDrip] (DUB, MVO) [ 1.46 GB ] Суперфлай / Superfly [2018 BDRip] MVO [] Twi7ter Скачать
1 | 0
Фильмы (Blu-ray, BD-Remux, HDDVD) [ 23.21 GB ] Суперфлай / Superfly [2018 BD Remux 1080p] MVO [R5] bober100 Скачать
1 | 0
Фильмы 2018 [DVDrip, WEB-DLRip, HDrip] (DUB, MVO) [ 1.46 GB ] Суперфлай / Superfly [2018 BDRip] MVO [R5] bober100 Скачать
1 | 0

28-11-2019 20:33  

Отключить всю рекламу на сайте

21-09-2018 01:02 Суперфлай Скачать торрент  

Это просто хохма)) главный актёр это нечто) сам его вид петушарский вызывает смех не болееpb.wtf



    Дорогой пользователь! Огромная просьба, поблагодарите релизера, оцените раздачу и оставьте свои комментарий, если Вы скачали Суперфлай через торрент бесплатно! Внесите свою лепту в развитие PiratBit!
    Комментировать посты могут только пользователи прошедшие не сложную регистрацию
    Показать сообщения:    

    Суперфлай через торрент
    Скачать бесплатно Суперфлай
    Суперфлай скачать торрент
    Суперфлай смотреть онлайн
    Cкачать фильм Суперфлай бесплатно
    Суперфлай скачать торрент в хорошем качестве
    Суперфлай смотреть онлайн бесплатно в хорошем качестве


    Вы не можете начинать темы
    Вы не можете отвечать на сообщения
    Вы не можете редактировать свои сообщения
    Вы не можете удалять свои сообщения
    Вы не можете голосовать в опросах
    Вы не можете прикреплять файлы к сообщениям
    Вы можете скачивать файлы