Ссылка на приватное зеркало нашего сайта всего за 1$. Внимание количество ограничено!!!

2 сезон

iTunes

1 сезон

1

2 сезон

2 сезон

iTunes

1 сезон

RePack

30

Новинка

ВАЖНО

ИГРА 18+

pack

RePack

MK11
pack

Забери бонус

RePack

jed

!!Акция!!

Alien_Rage

RePack

fifa19

RePack

Assassins Creed: Odyssey

RePack

NEED FOR SPEED™ PAYBACK

4 сезон

9 сезон

Бесстыжие 9 сезон

Все сериалы

все сериалы на PB.wtf

RePack

FAR CRY 5
  

Большой куш / Snatch / Сезон: 2 / Серии: 1-10 из 10 (Лоуренс Гоф, Николас Рентон, Джеффри Сакс) [2018, Комедия, криминал, WEBRip] MVO [LostFilm] pb.wtf

Большой куш через торрент pb.wtf

Размер: 5.88 GB | Добавлен: 2 года 1 мес. назад | Торрент скачан:53 раза
Скачать  

17-09-2018 01:48 Большой куш Скачать торрент  

Большой куш / Snatch
Год выпуска: 2018
Страна: Великобритания
Жанр: Комедия, криминал
Продолжительность: ~ 00:43:00
Перевод: Профессиональное (многоголосый) |
Субтитры: отсутствуют

Режиссер: Лоуренс Гоф, Николас Рентон, Джеффри Сакс

rating

В ролях:

Руперт Гринт, Люсьен Лависконт, Люк Паскуалино, Дугрей Скотт, Эд Вествик, Расс Бэйн, Клер Купер, Фиби Дайневор, Джо Херст

Описание:

Сюжет сосредоточится на группе молодых предприимчивых жуликов, наткнувшихся на грузовик, полный награбленного золота. Так герои оказываются втянутыми в мир элиты организованной преступности, где им придется на ходу учиться выживать, сталкиваясь с гангстерами, коррумпированными копами и боксерами-цыганами.

Качество: WEBRip
Формат: AVI

Видео: XviD, ~ 2 000 Кбит/с, 720x400
Аудио: MP3, 2 ch, 192 Кбит/с
скриншот  скриншот  скриншот  

Общее
Полное имя : D:\Snatch.S02.LostFilm\Snatch.S02E01.rus.LostFilm.TV.avi
Формат : AVI
Формат/Информация : Audio Video Interleave
Размер файла : 660 Мбайт
Продолжительность : 43 м. 36 с.
Режим общего битрейта : Переменный
Общий поток : 2115 Кбит/сек
Программа кодирования : Nandub v1.0rc2
Библиотека кодирования : Nandub build 1853/release

Видео
Идентификатор : 0
Формат : MPEG-4 Visual
Профиль формата : Advanced Simple@L5
Параметр BVOP формата : Нет
Параметр QPel формата : Нет
Параметр GMC формата : Без точки перехода
Параметр матрицы формата : Default (MPEG)
Идентификатор кодека : XVID
Идентификатор кодека/Подсказка : XviD
Продолжительность : 43 м. 36 с.
Битрейт : 1915 Кбит/сек
Ширина : 720 пикселей
Высота : 400 пикселей
Соотношение сторон : 16:9
Частота кадров : 23,976 (23976/1000) кадра/сек
Цветовое пространство : YUV
Субдискретизация насыщенности : 4:2:0
Битовая глубина : 8 бит
Тип развёртки : Прогрессивная
Метод сжатия : С потерями
Бит/(Пиксели*Кадры) : 0.277
Размер потока : 597 Мбайт (91%)
Библиотека кодирования : XviD 1.2.1 (UTC 2008-12-04)

Аудио
Идентификатор : 1
Формат : MPEG Audio
Версия формата : Version 1
Профиль формата : Layer 3
Режим : Joint stereo
Расширение режима : MS Stereo
Идентификатор кодека : 55
Идентификатор кодека/Подсказка : MP3
Продолжительность : 43 м. 36 с.
Вид битрейта : Переменный
Битрейт : 192 Кбит/сек
Каналы : 2 канала
Частота : 48,0 КГц
Метод сжатия : С потерями
Размер потока : 58,3 Мбайт (9%)
Выравнивание : Соединение по промежуткам
Продолжительность промежутка : 24 мс. (0,58 видеокадр)
Время предзагрузки промежутка : 493 мс.
Библиотека кодирования : LAME3.97b
Настройки программы : -m j -V 4 -q 3 -lowpass 18.6 --abr 192

Когда раздача ведётся путём добавления новых серий, при каждом добавлении создётся новый торрент. Чтобы начать докачку новой серии, пользователям необходимо сделать следующее:
(1) остановить скачивание,
(2) удалить старый торрент у себя из клиента (старые серии удалять не надо),
(3) скачать новый торрент и запустить его у себя в клиенте вместо старого, при этом указать клиенту путь в старую папку, куда и должно происходить скачивание новых серий.
Ваш клиент при этом должен произвести хеширование (проверку) старой папки (если не производит сам - помогите ему сделать это), и будет докачивать только те серии, которых у вас ещё нет. Старые серии при этом не удаляются, а продолжают раздаваться!
Eсли вы уже удалили старые серии, то предотвратить повторную закачку старых серий можно, отжав галочку в соответствующих местах при запуске нового торрента. По возможности, желательно не удалять старые серии как можно дольше, чтобы релизер не столько продолжал раздавать старые серии, а смог сконцентрироваться на новых.
pb.wtf



Скачать Большой куш через торрент https://i6.imageban.ru/out/2018/09/14/8001c3c79fd6b9323662ad9512c0583a.jpg Скачать фильм Большой куш через торрент бесплантно в хорошем качестве Описание: Сюжет сосредоточится на группе молодых предприимчивых жуликов, наткнувшихся на грузовик, полный награбленного золота. Так герои ... 10 10 4
Торрент: Зарегистрирован [2018-10-19 06:48] · скачан: 53 раз
Статус: √ проверено
Размер: 5.88 GB
Как cкачать? Как скачать Большой куш через торрент | qTorrent

% Раздел Тема Автор DL S | L
Зарубежные сериалы [ 550 MB ] Большой куш / Snatch / Сезон: 2 / Серии: 1 из 10 [2018 WEBRip] [MVO] killermax2013 Скачать
1 | 0
Зарубежные сериалы [ 7.52 GB ] Большой куш / Snatch / Сезон: 2 / Серии: 1-10 из 10 [2018 WEBRip 720p] MVO [Jaskier] bober100 Скачать
1 | 0
Зарубежные сериалы [ 4.89 GB ] Большой куш / Snatch / Сезон: 2 / Серии: 1-10 из 10 [2018 WEBRip] MVO [Jaskier] bober100 Скачать
1 | 0
Зарубежные сериалы [ 12.43 GB ] Большой куш / Snatch / Сезон: 2 / Серии: 1-10 из 10 [2018 WEBRip 1080p] MVO [Jaskier] bober100 Скачать
1 | 0
Зарубежные сериалы [ 22.29 GB ] Большой куш / Snatch / Сезон: 2 / Серии: 1-10 из 10 [2018 WEB-DL 1080p] [MVO] killermax2013 Скачать
1 | 0
Зарубежные сериалы [ 3.91 GB ] Большой куш / Snatch / Сезон: 2 / Серии: 1-10 из 10 [2018 WEBRip] [DVO] killermax2013 Скачать
1 | 0
Зарубежные сериалы [ 11.19 GB ] Большой куш / Snatch / Сезон: 2 / Серии: 1-10 из 10 [2018 WEBRip 720p] MVO [ColdFilm] bober100 Скачать
1 | 0

28-11-2019 20:33  

Отключить всю рекламу на сайте

    Дорогой пользователь! Огромная просьба, поблагодарите релизера, оцените раздачу и оставьте свои комментарий, если Вы скачали Большой куш через торрент бесплатно! Внесите свою лепту в развитие PiratBit!
    Комментировать посты могут только пользователи прошедшие не сложную регистрацию
    Показать сообщения:    

    Большой куш через торрент
    Скачать бесплатно Большой куш
    Большой куш скачать торрент
    Большой куш смотреть онлайн
    Cкачать фильм Большой куш бесплатно
    Большой куш скачать торрент в хорошем качестве
    Большой куш смотреть онлайн бесплатно в хорошем качестве


    Вы не можете начинать темы
    Вы не можете отвечать на сообщения
    Вы не можете редактировать свои сообщения
    Вы не можете удалять свои сообщения
    Вы не можете голосовать в опросах
    Вы не можете прикреплять файлы к сообщениям
    Вы можете скачивать файлы