Ссылка на приватное зеркало всего за 1$. Внимание количество ограничено!!!

OK

1+1

iTunes

мы

OK

1

WEB-DLRip

Джокер

Пифагор

Ведьмак / The Witcher сериал

Лицензия

ПШазам

ОК

Оно 2

iTunes

30
pack

Вам бонус

ВАЖНО

!!Акция!!

Alien_RageХит недели

RePack

Resident Evil 21

ИГРА 18+

pack

RePack

jed

RePack

fifa19

RePack

Assassins Creed: Odyssey

RePack

NEED FOR SPEED™ PAYBACK

4 сезон

9 сезон

Бесстыжие 9 сезон

Все сериалы

все сериалы на PB.wtf

RePack

FAR CRY 5
  

Он любил их всех / He Loved Them All (Джейк Хелгрен) [2018 г., Триллер, WEBRip, Любительский (многоголосый)(Синема УС)] pb.wtf

Он любил их всех через торрент pb.wtf

Размер: 1.3 GB | Добавлен: 1 год 4 мес. назад | Торрент скачан:31 раз
Скачать  

17-09-2018 03:09 Он любил их всех Скачать торрент  

Он любил их всех / He Loved Them All
Год выпуска: 2018
Страна: США / Ninth House, The, Twin Flames Films
Жанр: Триллер
Продолжительность: 01:20:40
Перевод: Любительский (многоголосый)(Синема УС)
Субтитры: Отсутствуют

Режиссер: Джейк Хелгрен

rating

В ролях: Кэтерин Бэйлесс, Дэймон Дэйуб, Эли Кобрин, Тиффани Хайнс, Уил Трэвэл, Джим Клок, Кили Хэзелл, Тери Ивенс, Николь Мур

Описание: Окрылённая любовью Сара Росс связывает себя узами брака с идеальным красавчиком Лео. Однако вскоре она начинает понимать, что её муж — не просто вор и аферист, но, вполне вероятно, ещё и убийца. И Сара — следующая, кого он захочет взять в тиски своих убийственных чувств.

Доп. информация: Присутствуют вставки текстовой рекламы

Качество: WEBRip
Формат: AVI
Видео кодек: XviD
Аудио кодек: AC3
Видео: XviD, 720x400, ~1902 Kbps
Аудио#1: AC-3, 2 ch, 384 Kbps
скриншот   скриншот   скриншот   скриншот  

Общее
Полное имя : D:\_Cinema\Он любил их всех\He Loved Them All 2018 WEBRip.avi
Формат : AVI
Формат/Информация : Audio Video Interleave
Профиль формата : OpenDML
Размер файла : 1,30 Гбайт
Продолжительность : 1 ч. 20 м.
Общий поток : 2299 Кбит/сек

Видео
Идентификатор : 0
Формат : MPEG-4 Visual
Профиль формата : Advanced Simple@L5
Параметр BVOP формата : 2
Параметр QPel формата : Нет
Параметр GMC формата : Без точки перехода
Параметр матрицы формата : Выборочная
Идентификатор кодека : XVID
Идентификатор кодека/Подсказка : XviD
Продолжительность : 1 ч. 20 м.
Битрейт : 1902 Кбит/сек
Ширина : 720 пикселей
Высота : 400 пикселей
Соотношение сторон : 16:9
Частота кадров : 23,976 (24000/1001) кадра/сек
Цветовое пространство : YUV
Субдискретизация насыщенности : 4:2:0
Битовая глубина : 8 бит
Тип развёртки : Прогрессивная
Метод сжатия : С потерями
Бит/(Пиксели*Кадры) : 0.275
Размер потока : 1,07 Гбайт (83%)
Библиотека кодирования : XviD 1.2.1 (UTC 2008-12-04)

Аудио
Идентификатор : 1
Формат : AC-3
Формат/Информация : Audio Coding 3
Расширение режима : CM (complete main)
Параметр Endianness формата : Big
Идентификатор кодека : 2000
Продолжительность : 1 ч. 20 м.
Вид битрейта : Постоянный
Битрейт : 384 Кбит/сек
Каналы : 2 канала
Расположение каналов : Front: L R
Частота : 48,0 КГц
Частота кадров : 31,250 кадров/сек (1536 spf)
Метод сжатия : С потерями
Размер потока : 222 Мбайт (17%)
Выравнивание : Соединение по промежуткам
Продолжительность промежутка : 32 мс. (0,77 видеокадр)

pb.wtf



Скачать Он любил их всех через торрент http://pic1.kartinco.top/images/11/7vtnd.jpg Скачать фильм Он любил их всех через торрент бесплантно в хорошем качестве Описание: Окрылённая любовью Сара Росс связывает себя узами брака с идеальным красавчиком Лео. Однако вскоре она начинает понимать, что её ... 1 10 1
Торрент: Зарегистрирован [2018-09-17 03:09] · скачан: 31 раз
Статус: T временная
Размер: 1.3 GB
Как cкачать? Как скачать Он любил их всех через торрент | qTorrent

28-11-2019 20:33  

Отключить всю рекламу на сайте

    Дорогой пользователь! Огромная просьба, поблагодарите релизера, оцените раздачу и оставьте свои комментарий, если Вы скачали Он любил их всех через торрент бесплатно! Внесите свою лепту в развитие PiratBit!
    Комментировать посты могут только пользователи прошедшие не сложную регистрацию
    Показать сообщения:    

    Он любил их всех через торрент
    Скачать бесплатно Он любил их всех
    Он любил их всех скачать торрент
    Он любил их всех смотреть онлайн
    Cкачать фильм Он любил их всех бесплатно
    Он любил их всех скачать торрент в хорошем качестве
    Он любил их всех смотреть онлайн бесплатно в хорошем качестве


    Вы не можете начинать темы
    Вы не можете отвечать на сообщения
    Вы не можете редактировать свои сообщения
    Вы не можете удалять свои сообщения
    Вы не можете голосовать в опросах
    Вы не можете прикреплять файлы к сообщениям
    Вы можете скачивать файлы