Ссылка на приватное зеркало всего за 1$. Внимание количество ограничено!!!

OK

1+1

iTunes

мы

OK

1

WEB-DLRip

Джокер

Пифагор

Ведьмак / The Witcher сериал

iTunes

ПШазам

ОК

Оно 2

iTunes

30
pack

Вам бонус

ВАЖНО

!!Акция!!

Alien_RageХит недели

RePack

Resident Evil 21

ИГРА 18+

pack

RePack

jed

RePack

fifa19

RePack

Assassins Creed: Odyssey

RePack

NEED FOR SPEED™ PAYBACK

4 сезон

9 сезон

Бесстыжие 9 сезон

Все сериалы

все сериалы на PB.wtf

RePack

FAR CRY 5
  

Нэнси / Nancy (Кристина Чоу) [2018 г., Триллер, драма, детектив, WEB-DLRip, Любительский (многоголосый)(Синема УС)] pb.wtf

Нэнси через торрент pb.wtf

Размер: 1.3 GB | Добавлен: 1 год 4 мес. назад | Торрент скачан:48 раз
Скачать  

17-09-2018 03:20 Нэнси Скачать торрент  

Нэнси / Nancy
Год выпуска: 2018
Страна: США / Mental Pictures,EON Productions,Gamechanger Films
Жанр: Триллер, драма, детектив
Продолжительность: 01:25:46
Перевод: Любительский (многоголосый)(Синема УС)
Субтитры: Отсутствуют

Режиссер: Кристина Чоу

rating

В ролях: Андреа Райзборо, Стив Бушеми, Энн Дауд, Джон Легуизамо, Дж. Смит-Камерон, Маринда Андерсон, Джейми Ангелл, Лоренцо Беронилла, Оуэн Кэмпбелл, Самрат Чакрабарти

Описание: Нэнси Фримен — изобретательная интернет-мошенница, которая выдаёт себя за других людей, чтобы добиться чужого внимания и сочувствия. Но оказавшись на пороге разоблачения, Нэнси рискует потерять того единственного человека, который любил её по-настоящему.

Доп. информация: Присутствуют вставки текстовой рекламы

Качество: WEB-DLRip
Формат: AVI
Видео кодек: XviD
Аудио кодек: AC3
Видео: XviD, 720x400, ~1770 Kbps
Аудио#1: AC-3, 2 ch, 384 Kbps
скриншот   скриншот   скриншот   скриншот  

Общее
Полное имя : D:\_Cinema\Нэнси\Nancy 2018 WEB-DLRip.avi
Формат : AVI
Формат/Информация : Audio Video Interleave
Профиль формата : OpenDML
Размер файла : 1,30 Гбайт
Продолжительность : 1 ч. 25 м.
Общий поток : 2167 Кбит/сек

Видео
Идентификатор : 0
Формат : MPEG-4 Visual
Профиль формата : Advanced Simple@L5
Параметр BVOP формата : 2
Параметр QPel формата : Нет
Параметр GMC формата : Без точки перехода
Параметр матрицы формата : Выборочная
Идентификатор кодека : XVID
Идентификатор кодека/Подсказка : XviD
Продолжительность : 1 ч. 25 м.
Битрейт : 1770 Кбит/сек
Ширина : 720 пикселей
Высота : 400 пикселей
Соотношение сторон : 16:9
Частота кадров : 23,976 (24000/1001) кадра/сек
Цветовое пространство : YUV
Субдискретизация насыщенности : 4:2:0
Битовая глубина : 8 бит
Тип развёртки : Прогрессивная
Метод сжатия : С потерями
Бит/(Пиксели*Кадры) : 0.256
Размер потока : 1,06 Гбайт (82%)
Библиотека кодирования : XviD 1.2.1 (UTC 2008-12-04)

Аудио
Идентификатор : 1
Формат : AC-3
Формат/Информация : Audio Coding 3
Расширение режима : CM (complete main)
Параметр Endianness формата : Big
Идентификатор кодека : 2000
Продолжительность : 1 ч. 25 м.
Вид битрейта : Постоянный
Битрейт : 384 Кбит/сек
Каналы : 2 канала
Расположение каналов : Front: L R
Частота : 48,0 КГц
Частота кадров : 31,250 кадров/сек (1536 spf)
Метод сжатия : С потерями
Размер потока : 236 Мбайт (18%)
Выравнивание : Соединение по промежуткам
Продолжительность промежутка : 32 мс. (0,77 видеокадр)

pb.wtf



Скачать Нэнси через торрент http://pic1.kartinco.top/images/11/w7apr.jpg Скачать фильм Нэнси через торрент бесплантно в хорошем качестве Описание: Нэнси Фримен — изобретательная интернет-мошенница, которая выдаёт себя за других людей, чтобы добиться чужого внимания и ... 10 10 1
Торрент: Зарегистрирован [2018-09-17 03:20] · скачан: 48 раз
Статус: T временная
Размер: 1.3 GB
Как cкачать? Как скачать Нэнси через торрент | qTorrent

% Раздел Тема Автор DL S | L
Зарубежные сериалы [ 14.5 GB ] Нэнси Дрю / Nancy Drew / Сезон: 1 / Серии: 1-8 из 13 [2019 WEB-DL 720p] 3xMVO [LostFilm TVShows HDRezka Studio] bober100 Скачать
1 | 0
Зарубежные сериалы [ 14.21 GB ] Нэнси Дрю / Nancy Drew / Сезон: 1 / Серии: 1-10 из 13 [2019 WEB-DL 720p] MVO [TVShows] bober100 Скачать
1 | 1
Зарубежные сериалы [ 28.15 GB ] Нэнси Дрю / Nancy Drew / Сезон: 1 / Серии: 1-10 из 22 [2019 WEB-DL 1080p] MVO [TVShows] bober100 Скачать
1 | 0
Зарубежные сериалы [ 1.76 GB ] Нэнси Дрю / Nancy Drew / Сезон: 1 / Серии: 1- из 13 [2019 WEB-DL 720p] MVO [HDRezka Studio] bober100 Скачать
1 | 0
Зарубежные сериалы [ 27.91 GB ] Нэнси Дрю / Nancy Drew / Сезон: 1 / Серии: 1-10 из 22 [2019 WEB-DL 1080p] MVO [Jaskier] bober100 Скачать
2 | 0
Зарубежные сериалы [ 14.38 GB ] Нэнси Дрю / Nancy Drew / Сезон: 1 / Серии: 1-10 из 22 [2019 WEB-DL 720p] MVO [Jaskier] bober100 Скачать
1 | 0
Зарубежные сериалы [ 4.9 GB ] Нэнси Дрю / Nancy Drew / Сезон: 1 / Серии: 1-10 из 22 [2019 WEB-DLRip] MVO [Jaskier] bober100 Скачать
2 | 0

28-11-2019 20:33  

Отключить всю рекламу на сайте

    Дорогой пользователь! Огромная просьба, поблагодарите релизера, оцените раздачу и оставьте свои комментарий, если Вы скачали Нэнси через торрент бесплатно! Внесите свою лепту в развитие PiratBit!
    Комментировать посты могут только пользователи прошедшие не сложную регистрацию
    Показать сообщения:    

    Нэнси через торрент
    Скачать бесплатно Нэнси
    Нэнси скачать торрент
    Нэнси смотреть онлайн
    Cкачать фильм Нэнси бесплатно
    Нэнси скачать торрент в хорошем качестве
    Нэнси смотреть онлайн бесплатно в хорошем качестве


    Вы не можете начинать темы
    Вы не можете отвечать на сообщения
    Вы не можете редактировать свои сообщения
    Вы не можете удалять свои сообщения
    Вы не можете голосовать в опросах
    Вы не можете прикреплять файлы к сообщениям
    Вы можете скачивать файлы